  0
SECTION
  2
HEADER
  9
$ACADVER
  1
AC1015
  9
$ACADMAINTVER
 70
    20
  9
$DWGCODEPAGE
  3
ANSI_1252
  9
$INSBASE
 10
0.0
 20
0.0
 30
0.0
  9
$EXTMIN
 10
256.8562023169961
 20
-9452.291618317795
 30
0.0
  9
$EXTMAX
 10
11134.54240142855
 20
6282.66509516339
 30
0.0
  9
$LIMMIN
 10
0.0
 20
0.0
  9
$LIMMAX
 10
420.0
 20
297.0
  9
$ORTHOMODE
 70
     1
  9
$REGENMODE
 70
     1
  9
$FILLMODE
 70
     1
  9
$QTEXTMODE
 70
     0
  9
$MIRRTEXT
 70
     1
  9
$LTSCALE
 40
100.0
  9
$ATTMODE
 70
     1
  9
$TEXTSIZE
 40
4.0
  9
$TRACEWID
 40
1.0
  9
$TEXTSTYLE
  7
Standard
  9
$CLAYER
  8
0
  9
$CELTYPE
  6
ByLayer
  9
$CECOLOR
 62
   256
  9
$CELTSCALE
 40
1.0
  9
$DISPSILH
 70
     0
  9
$DIMSCALE
 40
1.0
  9
$DIMASZ
 40
3.0
  9
$DIMEXO
 40
3.0
  9
$DIMDLI
 40
3.75
  9
$DIMRND
 40
0.0
  9
$DIMDLE
 40
0.0
  9
$DIMEXE
 40
0.5
  9
$DIMTP
 40
0.0
  9
$DIMTM
 40
0.0
  9
$DIMTXT
 40
2.799999999999999
  9
$DIMCEN
 40
3.0
  9
$DIMTSZ
 40
0.0
  9
$DIMTOL
 70
     0
  9
$DIMLIM
 70
     0
  9
$DIMTIH
 70
     0
  9
$DIMTOH
 70
     0
  9
$DIMSE1
 70
     0
  9
$DIMSE2
 70
     0
  9
$DIMTAD
 70
     1
  9
$DIMZIN
 70
     8
  9
$DIMBLK
  1

  9
$DIMASO
 70
     1
  9
$DIMSHO
 70
     1
  9
$DIMPOST
  1

  9
$DIMAPOST
  1

  9
$DIMALT
 70
     0
  9
$DIMALTD
 70
     3
  9
$DIMALTF
 40
0.03937007874016
  9
$DIMLFAC
 40
1.0
  9
$DIMTOFL
 70
     1
  9
$DIMTVP
 40
0.0
  9
$DIMTIX
 70
     0
  9
$DIMSOXD
 70
     0
  9
$DIMSAH
 70
     0
  9
$DIMBLK1
  1

  9
$DIMBLK2
  1

  9
$DIMSTYLE
  2
ISO-25
  9
$DIMCLRD
 70
     1
  9
$DIMCLRE
 70
     1
  9
$DIMCLRT
 70
     6
  9
$DIMTFAC
 40
1.0
  9
$DIMGAP
 40
0.625
  9
$DIMJUST
 70
     0
  9
$DIMSD1
 70
     0
  9
$DIMSD2
 70
     0
  9
$DIMTOLJ
 70
     0
  9
$DIMTZIN
 70
     8
  9
$DIMALTZ
 70
     0
  9
$DIMALTTZ
 70
     0
  9
$DIMUPT
 70
     0
  9
$DIMDEC
 70
     2
  9
$DIMTDEC
 70
     2
  9
$DIMALTU
 70
     2
  9
$DIMALTTD
 70
     3
  9
$DIMTXSTY
  7
S25
  9
$DIMAUNIT
 70
     0
  9
$DIMADEC
 70
     0
  9
$DIMALTRND
 40
0.0
  9
$DIMAZIN
 70
     0
  9
$DIMDSEP
 70
    44
  9
$DIMATFIT
 70
     3
  9
$DIMFRAC
 70
     0
  9
$DIMLDRBLK
  1

  9
$DIMLUNIT
 70
     2
  9
$DIMLWD
 70
    -2
  9
$DIMLWE
 70
    -2
  9
$DIMTMOVE
 70
     0
  9
$LUNITS
 70
     2
  9
$LUPREC
 70
     4
  9
$SKETCHINC
 40
1.0
  9
$FILLETRAD
 40
15.0
  9
$AUNITS
 70
     0
  9
$AUPREC
 70
     0
  9
$MENU
  1
.
  9
$ELEVATION
 40
0.0
  9
$PELEVATION
 40
0.0
  9
$THICKNESS
 40
0.0
  9
$LIMCHECK
 70
     0
  9
$CHAMFERA
 40
0.0
  9
$CHAMFERB
 40
0.0
  9
$CHAMFERC
 40
20.0
  9
$CHAMFERD
 40
0.0
  9
$SKPOLY
 70
     0
  9
$TDCREATE
 40
2452718.759737500
  9
$TDUCREATE
 40
2452718.718070833
  9
$TDUPDATE
 40
2454440.782485949
  9
$TDUUPDATE
 40
2454440.740819283
  9
$TDINDWG
 40
4.8403083796
  9
$TDUSRTIMER
 40
4.8403083796
  9
$USRTIMER
 70
     1
  9
$ANGBASE
 50
0.0
  9
$ANGDIR
 70
     0
  9
$PDMODE
 70
     0
  9
$PDSIZE
 40
0.0
  9
$PLINEWID
 40
0.0
  9
$SPLFRAME
 70
     0
  9
$SPLINETYPE
 70
     6
  9
$SPLINESEGS
 70
     8
  9
$HANDSEED
  5
FF0F
  9
$SURFTAB1
 70
     6
  9
$SURFTAB2
 70
     6
  9
$SURFTYPE
 70
     6
  9
$SURFU
 70
     6
  9
$SURFV
 70
     6
  9
$UCSBASE
  2

  9
$UCSNAME
  2

  9
$UCSORG
 10
0.0
 20
0.0
 30
0.0
  9
$UCSXDIR
 10
1.0
 20
0.0
 30
0.0
  9
$UCSYDIR
 10
0.0
 20
1.0
 30
0.0
  9
$UCSORTHOREF
  2

  9
$UCSORTHOVIEW
 70
     0
  9
$UCSORGTOP
 10
0.0
 20
0.0
 30
0.0
  9
$UCSORGBOTTOM
 10
0.0
 20
0.0
 30
0.0
  9
$UCSORGLEFT
 10
0.0
 20
0.0
 30
0.0
  9
$UCSORGRIGHT
 10
0.0
 20
0.0
 30
0.0
  9
$UCSORGFRONT
 10
0.0
 20
0.0
 30
0.0
  9
$UCSORGBACK
 10
0.0
 20
0.0
 30
0.0
  9
$PUCSBASE
  2

  9
$PUCSNAME
  2

  9
$PUCSORG
 10
0.0
 20
0.0
 30
0.0
  9
$PUCSXDIR
 10
1.0
 20
0.0
 30
0.0
  9
$PUCSYDIR
 10
0.0
 20
1.0
 30
0.0
  9
$PUCSORTHOREF
  2

  9
$PUCSORTHOVIEW
 70
     0
  9
$PUCSORGTOP
 10
0.0
 20
0.0
 30
0.0
  9
$PUCSORGBOTTOM
 10
0.0
 20
0.0
 30
0.0
  9
$PUCSORGLEFT
 10
0.0
 20
0.0
 30
0.0
  9
$PUCSORGRIGHT
 10
0.0
 20
0.0
 30
0.0
  9
$PUCSORGFRONT
 10
0.0
 20
0.0
 30
0.0
  9
$PUCSORGBACK
 10
0.0
 20
0.0
 30
0.0
  9
$USERI1
 70
     0
  9
$USERI2
 70
     0
  9
$USERI3
 70
     0
  9
$USERI4
 70
     0
  9
$USERI5
 70
     0
  9
$USERR1
 40
0.0
  9
$USERR2
 40
0.0
  9
$USERR3
 40
0.0
  9
$USERR4
 40
0.0
  9
$USERR5
 40
0.0
  9
$WORLDVIEW
 70
     1
  9
$SHADEDGE
 70
     3
  9
$SHADEDIF
 70
    70
  9
$TILEMODE
 70
     1
  9
$MAXACTVP
 70
    48
  9
$PINSBASE
 10
0.0
 20
0.0
 30
0.0
  9
$PLIMCHECK
 70
     0
  9
$PEXTMIN
 10
1.000000000000000E+20
 20
1.000000000000000E+20
 30
1.000000000000000E+20
  9
$PEXTMAX
 10
-1.000000000000000E+20
 20
-1.000000000000000E+20
 30
-1.000000000000000E+20
  9
$PLIMMIN
 10
0.0
 20
0.0
  9
$PLIMMAX
 10
420.0
 20
297.0
  9
$UNITMODE
 70
     0
  9
$VISRETAIN
 70
     1
  9
$PLINEGEN
 70
     0
  9
$PSLTSCALE
 70
     1
  9
$TREEDEPTH
 70
  3020
  9
$CMLSTYLE
  2
Standard
  9
$CMLJUST
 70
     0
  9
$CMLSCALE
 40
20.0
  9
$PROXYGRAPHICS
 70
     1
  9
$MEASUREMENT
 70
     1
  9
$CELWEIGHT
370
    -1
  9
$ENDCAPS
280
     0
  9
$JOINSTYLE
280
     0
  9
$LWDISPLAY
290
     0
  9
$INSUNITS
 70
     4
  9
$HYPERLINKBASE
  1

  9
$STYLESHEET
  1
ploter.ctb
  9
$XEDIT
290
     1
  9
$CEPSNTYPE
380
     0
  9
$PSTYLEMODE
290
     1
  9
$FINGERPRINTGUID
  2
{6A4B0254-5A16-11D7-9F4F-A64850E75970}
  9
$VERSIONGUID
  2
{DAF64AF2-E473-45F0-826A-74F1375D7423}
  9
$EXTNAMES
290
     1
  9
$PSVPSCALE
 40
0.0
  9
$OLESTARTUP
290
     0
  0
ENDSEC
  0
SECTION
  2
CLASSES
  0
CLASS
  1
ACDBDICTIONARYWDFLT
  2
AcDbDictionaryWithDefault
  3
ObjectDBX Classes
 90
        0
280
     0
281
     0
  0
CLASS
  1
ACDBPLACEHOLDER
  2
AcDbPlaceHolder
  3
ObjectDBX Classes
 90
        0
280
     0
281
     0
  0
CLASS
  1
LAYOUT
  2
AcDbLayout
  3
ObjectDBX Classes
 90
        0
280
     0
281
     0
  0
CLASS
  1
DICTIONARYVAR
  2
AcDbDictionaryVar
  3
ObjectDBX Classes
 90
        0
280
     0
281
     0
  0
CLASS
  1
DIMASSOC
  2
AcDbDimAssoc
  3
"AcDbDimAssoc|Product Desc:     AcDim ARX App For Dimension|Company:          Autodesk, Inc.|WEB Address:      www.autodesk.com"
 90
        0
280
     0
281
     0
  0
CLASS
  1
IMAGEDEF
  2
AcDbRasterImageDef
  3
ISM
 90
        0
280
     0
281
     0
  0
CLASS
  1
SORTENTSTABLE
  2
AcDbSortentsTable
  3
ObjectDBX Classes
 90
        0
280
     0
281
     0
  0
CLASS
  1
TABLESTYLE
  2
AcDbTableStyle
  3
ObjectDBX Classes
 90
     4095
280
     0
281
     0
  0
CLASS
  1
MATERIAL
  2
AcDbMaterial
  3
ObjectDBX Classes
 90
     1024
280
     0
281
     0
  0
CLASS
  1
VISUALSTYLE
  2
AcDbVisualStyle
  3
ObjectDBX Classes
 90
     4095
280
     0
281
     0
  0
ENDSEC
  0
SECTION
  2
TABLES
  0
TABLE
  2
VPORT
  5
8
330
0
100
AcDbSymbolTable
 70
     1
  0
VPORT
  5
FEC9
330
8
100
AcDbSymbolTableRecord
100
AcDbViewportTableRecord
  2
*Active
 70
     0
 10
0.0
 20
0.0
 11
1.0
 21
1.0
 12
2634.955666226696
 22
-7700.642684750729
 13
0.0
 23
0.0
 14
17.32050807568877
 24
5.0
 15
17.32050807568877
 25
5.0
 16
0.0
 26
0.0
 36
1.0
 17
0.0
 27
0.0
 37
0.0
 40
2303.11291761895
 41
2.117569352708057
 42
50.0
 43
0.0
 44
0.0
 50
0.0
 51
0.0
 71
     0
 72
   100
 73
     1
 74
     3
 75
     0
 76
     1
 77
     0
 78
     2
281
     0
 65
     1
110
0.0
120
0.0
130
0.0
111
1.0
121
0.0
131
0.0
112
0.0
122
1.0
132
0.0
 79
     0
146
0.0
  0
ENDTAB
  0
TABLE
  2
LTYPE
  5
5
330
0
100
AcDbSymbolTable
 70
     2
  0
LTYPE
  5
14
330
5
100
AcDbSymbolTableRecord
100
AcDbLinetypeTableRecord
  2
ByBlock
 70
     0
  3

 72
    65
 73
     0
 40
0.0
  0
LTYPE
  5
15
330
5
100
AcDbSymbolTableRecord
100
AcDbLinetypeTableRecord
  2
ByLayer
 70
     0
  3

 72
    65
 73
     0
 40
0.0
  0
LTYPE
  5
16
330
5
100
AcDbSymbolTableRecord
100
AcDbLinetypeTableRecord
  2
Continuous
 70
     0
  3
Solid line
 72
    65
 73
     0
 40
0.0
  0
LTYPE
  5
AB2D
330
5
100
AcDbSymbolTableRecord
100
AcDbLinetypeTableRecord
  2
CENTRO
 70
     0
  3
____ _ ____ _ ____ _ ____ _ ____ _ ____ _ ____ 
 72
    65
 73
     4
 40
2.0
 49
1.25
 74
     0
 49
-0.25
 74
     0
 49
0.25
 74
     0
 49
-0.25
 74
     0
  0
ENDTAB
  0
TABLE
  2
LAYER
  5
2
330
0
100
AcDbSymbolTable
 70
    10
  0
LAYER
  5
10
330
2
100
AcDbSymbolTableRecord
100
AcDbLayerTableRecord
  2
0
 70
     0
 62
     7
  6
Continuous
370
    -3
390
F
  0
LAYER
  5
2F
330
2
100
AcDbSymbolTableRecord
100
AcDbLayerTableRecord
  2
010
 70
     0
 62
     1
  6
Continuous
370
    -3
390
F
  0
LAYER
  5
6F4
330
2
100
AcDbSymbolTableRecord
100
AcDbLayerTableRecord
  2
Defpoints
 70
     0
 62
     7
  6
Continuous
290
     0
370
    -3
390
F
  0
LAYER
  5
AB2E
330
2
100
AcDbSymbolTableRecord
100
AcDbLayerTableRecord
  2
CAJETIN
 70
     0
 62
     4
  6
Continuous
370
    -3
390
F
  0
LAYER
  5
AB2F
330
2
100
AcDbSymbolTableRecord
100
AcDbLayerTableRecord
  2
EJES
 70
     0
 62
     2
  6
CENTRO
370
    -3
390
F
  0
LAYER
  5
AB31
330
2
100
AcDbSymbolTableRecord
100
AcDbLayerTableRecord
  2
COTAS
 70
     0
 62
     3
  6
Continuous
370
    -3
390
F
  0
LAYER
  5
AB33
330
2
100
AcDbSymbolTableRecord
100
AcDbLayerTableRecord
  2
TEXTO-MODIF
 70
     0
 62
    11
  6
Continuous
370
    -3
390
F
  0
LAYER
  5
AB34
330
2
100
AcDbSymbolTableRecord
100
AcDbLayerTableRecord
  2
PC-SHOP
 70
     0
 62
     7
  6
Continuous
370
    -3
390
F
  0
LAYER
  5
B4DE
330
2
100
AcDbSymbolTableRecord
100
AcDbLayerTableRecord
  2
tampon_distr._doc.
 70
     0
 62
  -142
  6
Continuous
370
    -3
390
F
  0
LAYER
  5
F09E
330
2
100
AcDbSymbolTableRecord
100
AcDbLayerTableRecord
  2
ASHADE
 70
     4
 62
     7
  6
Continuous
370
    -3
390
F
  0
ENDTAB
  0
TABLE
  2
STYLE
  5
3
330
0
100
AcDbSymbolTable
 70
     5
  0
STYLE
  5
11
330
3
100
AcDbSymbolTableRecord
100
AcDbTextStyleTableRecord
  2
Standard
 70
     0
 40
0.0
 41
1.0
 50
0.0
 71
     0
 42
4.0
  3
txt
  4

  0
STYLE
  5
35
330
3
100
AcDbSymbolTableRecord
100
AcDbTextStyleTableRecord
  2
S25
 70
     0
 40
2.5
 41
1.0
 50
0.0
 71
     0
 42
2.5
  3
simplex.shx
  4

  0
STYLE
  5
AB35
330
3
100
AcDbSymbolTableRecord
100
AcDbTextStyleTableRecord
  2
ROMANS
 70
     0
 40
0.0
 41
1.0
 50
0.0
 71
     0
 42
30.0
  3
romans
  4

  0
STYLE
  5
B4DF
330
3
100
AcDbSymbolTableRecord
100
AcDbTextStyleTableRecord
  2
caja_tdd
 70
     0
 40
0.0
 41
1.0
 50
0.0
 71
     0
 42
2.222036685865759
  3
ARIAL.TTF
  4

1001
ACAD
1000
Arial
1071
       34
  0
STYLE
  5
B4E0
330
3
100
AcDbSymbolTableRecord
100
AcDbTextStyleTableRecord
  2
MANO
 70
     0
 40
0.0
 41
1.0
 50
0.0
 71
     0
 42
5.109471091417503
  3
cityb___.ttf
  4

1001
ACAD
1000
CityBlueprint
1071
      514
  0
ENDTAB
  0
TABLE
  2
VIEW
  5
6
330
0
100
AcDbSymbolTable
 70
     0
  0
ENDTAB
  0
TABLE
  2
UCS
  5
7
330
0
100
AcDbSymbolTable
 70
     0
  0
ENDTAB
  0
TABLE
  2
APPID
  5
9
330
0
100
AcDbSymbolTable
 70
     9
  0
APPID
  5
12
330
9
100
AcDbSymbolTableRecord
100
AcDbRegAppTableRecord
  2
ACAD
 70
     0
  0
APPID
  5
7AB7
330
9
100
AcDbSymbolTableRecord
100
AcDbRegAppTableRecord
  2
RAK
 70
     0
  0
APPID
  5
EB42
330
9
100
AcDbSymbolTableRecord
100
AcDbRegAppTableRecord
  2
DCO15
 70
     0
  0
APPID
  5
F09C
330
9
100
AcDbSymbolTableRecord
100
AcDbRegAppTableRecord
  2
AVE_RENDER
 70
     0
  0
APPID
  5
F09D
330
9
100
AcDbSymbolTableRecord
100
AcDbRegAppTableRecord
  2
AVE_ENTITY_MATERIAL
 70
     0
  0
APPID
  5
F0AA
330
9
100
AcDbSymbolTableRecord
100
AcDbRegAppTableRecord
  2
AVE_FINISH
 70
     0
  0
APPID
  5
F0AB
330
9
100
AcDbSymbolTableRecord
100
AcDbRegAppTableRecord
  2
AVE_MATERIAL
 70
     0
  0
APPID
  5
F0AC
330
9
100
AcDbSymbolTableRecord
100
AcDbRegAppTableRecord
  2
AVE_GLOBAL
 70
     0
  0
APPID
  5
FC8D
330
9
100
AcDbSymbolTableRecord
100
AcDbRegAppTableRecord
  2
ACAD_PSEXT
 70
     0
  0
ENDTAB
  0
TABLE
  2
DIMSTYLE
  5
A
330
0
100
AcDbSymbolTable
 70
     2
100
AcDbDimStyleTable
 71
     2
340
27
340
38
  0
DIMSTYLE
105
27
330
A
100
AcDbSymbolTableRecord
100
AcDbDimStyleTableRecord
  2
ISO-25
 70
     0
 41
3.0
 42
3.0
 43
3.75
 44
0.5
 73
     0
 74
     0
 77
     1
 78
     8
140
2.799999999999999
141
3.0
143
0.03937007874016
147
0.625
171
     3
172
     1
176
     1
177
     1
178
     6
271
     2
272
     2
274
     3
278
    44
283
     0
284
     8
340
35
  0
DIMSTYLE
105
38
102
{ACAD_REACTORS
330
F964
330
F9D8
330
F9D9
330
F9DC
330
F8E1
330
F8F3
102
}
330
A
100
AcDbSymbolTableRecord
100
AcDbDimStyleTableRecord
  2
STANDARD
 70
     0
340
11
  0
ENDTAB
  0
TABLE
  2
BLOCK_RECORD
  5
1
330
0
100
AcDbSymbolTable
 70
    50
  0
BLOCK_RECORD
  5
1F
102
{ACAD_XDICTIONARY
360
C0CF
102
}
330
1
100
AcDbSymbolTableRecord
100
AcDbBlockTableRecord
  2
*Model_Space
340
22
  0
BLOCK_RECORD
  5
1B
102
{ACAD_XDICTIONARY
360
D373
102
}
330
1
100
AcDbSymbolTableRecord
100
AcDbBlockTableRecord
  2
*Paper_Space
340
1E
  0
BLOCK_RECORD
  5
23
102
{ACAD_XDICTIONARY
360
D375
102
}
330
1
100
AcDbSymbolTableRecord
100
AcDbBlockTableRecord
  2
*Paper_Space0
340
26
  0
BLOCK_RECORD
  5
B40F
330
1
100
AcDbSymbolTableRecord
100
AcDbBlockTableRecord
  2
*D1
340
0
  0
BLOCK_RECORD
  5
B43B
330
1
100
AcDbSymbolTableRecord
100
AcDbBlockTableRecord
  2
*D2
340
0
  0
BLOCK_RECORD
  5
B45F
330
1
100
AcDbSymbolTableRecord
100
AcDbBlockTableRecord
  2
*D3
340
0
  0
BLOCK_RECORD
  5
B482
330
1
100
AcDbSymbolTableRecord
100
AcDbBlockTableRecord
  2
*D4
340
0
  0
BLOCK_RECORD
  5
B4B0
330
1
100
AcDbSymbolTableRecord
100
AcDbBlockTableRecord
  2
*D5
340
0
  0
BLOCK_RECORD
  5
B728
330
1
100
AcDbSymbolTableRecord
100
AcDbBlockTableRecord
  2
*D6
340
0
  0
BLOCK_RECORD
  5
B735
330
1
100
AcDbSymbolTableRecord
100
AcDbBlockTableRecord
  2
*D7
340
0
  0
BLOCK_RECORD
  5
B742
330
1
100
AcDbSymbolTableRecord
100
AcDbBlockTableRecord
  2
*D8
340
0
  0
BLOCK_RECORD
  5
B74F
330
1
100
AcDbSymbolTableRecord
100
AcDbBlockTableRecord
  2
*D9
340
0
  0
BLOCK_RECORD
  5
B75C
330
1
100
AcDbSymbolTableRecord
100
AcDbBlockTableRecord
  2
*D10
340
0
  0
BLOCK_RECORD
  5
BE66
330
1
100
AcDbSymbolTableRecord
100
AcDbBlockTableRecord
  2
*D11
340
0
  0
BLOCK_RECORD
  5
BE73
330
1
100
AcDbSymbolTableRecord
100
AcDbBlockTableRecord
  2
*D12
340
0
  0
BLOCK_RECORD
  5
BE80
330
1
100
AcDbSymbolTableRecord
100
AcDbBlockTableRecord
  2
*D13
340
0
  0
BLOCK_RECORD
  5
BE8D
330
1
100
AcDbSymbolTableRecord
100
AcDbBlockTableRecord
  2
*D14
340
0
  0
BLOCK_RECORD
  5
BF89
330
1
100
AcDbSymbolTableRecord
100
AcDbBlockTableRecord
  2
*D15
340
0
  0
BLOCK_RECORD
  5
CF0E
330
1
100
AcDbSymbolTableRecord
100
AcDbBlockTableRecord
  2
*D16
340
0
  0
BLOCK_RECORD
  5
CF3A
330
1
100
AcDbSymbolTableRecord
100
AcDbBlockTableRecord
  2
*D17
340
0
  0
BLOCK_RECORD
  5
D0C4
330
1
100
AcDbSymbolTableRecord
100
AcDbBlockTableRecord
  2
*D18
340
0
  0
BLOCK_RECORD
  5
D0DE
330
1
100
AcDbSymbolTableRecord
100
AcDbBlockTableRecord
  2
*D19
340
0
  0
BLOCK_RECORD
  5
D29A
330
1
100
AcDbSymbolTableRecord
100
AcDbBlockTableRecord
  2
*D20
340
0
  0
BLOCK_RECORD
  5
D2D1
330
1
100
AcDbSymbolTableRecord
100
AcDbBlockTableRecord
  2
*D21
340
0
  0
BLOCK_RECORD
  5
DF47
330
1
100
AcDbSymbolTableRecord
100
AcDbBlockTableRecord
  2
*D22
340
0
  0
BLOCK_RECORD
  5
EE10
330
1
100
AcDbSymbolTableRecord
100
AcDbBlockTableRecord
  2
*D23
340
0
  0
BLOCK_RECORD
  5
EE1D
330
1
100
AcDbSymbolTableRecord
100
AcDbBlockTableRecord
  2
*D24
340
0
  0
BLOCK_RECORD
  5
EF7D
330
1
100
AcDbSymbolTableRecord
100
AcDbBlockTableRecord
  2
*D25
340
0
  0
BLOCK_RECORD
  5
EF99
330
1
100
AcDbSymbolTableRecord
100
AcDbBlockTableRecord
  2
*D26
340
0
  0
BLOCK_RECORD
  5
EFB1
330
1
100
AcDbSymbolTableRecord
100
AcDbBlockTableRecord
  2
*D27
340
0
  0
BLOCK_RECORD
  5
EFDF
330
1
100
AcDbSymbolTableRecord
100
AcDbBlockTableRecord
  2
*D28
340
0
  0
BLOCK_RECORD
  5
EFF9
330
1
100
AcDbSymbolTableRecord
100
AcDbBlockTableRecord
  2
*D29
340
0
  0
BLOCK_RECORD
  5
F09F
330
1
100
AcDbSymbolTableRecord
100
AcDbBlockTableRecord
  2
AVE_RENDER
340
0
102
{BLKREFS
331
F0A2
331
F0A3
331
F0A4
331
F0A5
331
F0A6
331
F0A7
331
F0A8
331
F0A9
102
}
  0
BLOCK_RECORD
  5
F0AD
330
1
100
AcDbSymbolTableRecord
100
AcDbBlockTableRecord
  2
AVE_GLOBAL
340
0
102
{BLKREFS
331
F0B0
102
}
  0
BLOCK_RECORD
  5
F333
330
1
100
AcDbSymbolTableRecord
100
AcDbBlockTableRecord
  2
*D32
340
0
  0
BLOCK_RECORD
  5
F340
330
1
100
AcDbSymbolTableRecord
100
AcDbBlockTableRecord
  2
*D33
340
0
  0
BLOCK_RECORD
  5
F34D
330
1
100
AcDbSymbolTableRecord
100
AcDbBlockTableRecord
  2
*D34
340
0
  0
BLOCK_RECORD
  5
F450
330
1
100
AcDbSymbolTableRecord
100
AcDbBlockTableRecord
  2
*D35
340
0
  0
BLOCK_RECORD
  5
F46A
330
1
100
AcDbSymbolTableRecord
100
AcDbBlockTableRecord
  2
*D36
340
0
  0
BLOCK_RECORD
  5
F499
330
1
100
AcDbSymbolTableRecord
100
AcDbBlockTableRecord
  2
*D37
340
0
  0
BLOCK_RECORD
  5
F6CC
330
1
100
AcDbSymbolTableRecord
100
AcDbBlockTableRecord
  2
*D38
340
0
  0
BLOCK_RECORD
  5
F6D9
330
1
100
AcDbSymbolTableRecord
100
AcDbBlockTableRecord
  2
*D39
340
0
  0
BLOCK_RECORD
  5
F6E7
330
1
100
AcDbSymbolTableRecord
100
AcDbBlockTableRecord
  2
*D40
340
0
  0
BLOCK_RECORD
  5
F6F4
330
1
100
AcDbSymbolTableRecord
100
AcDbBlockTableRecord
  2
*D41
340
0
  0
BLOCK_RECORD
  5
F701
330
1
100
AcDbSymbolTableRecord
100
AcDbBlockTableRecord
  2
*D42
340
0
  0
BLOCK_RECORD
  5
F723
330
1
100
AcDbSymbolTableRecord
100
AcDbBlockTableRecord
  2
*D43
340
0
  0
BLOCK_RECORD
  5
F9DF
330
1
100
AcDbSymbolTableRecord
100
AcDbBlockTableRecord
  2
*D44
340
0
  0
BLOCK_RECORD
  5
F9EC
330
1
100
AcDbSymbolTableRecord
100
AcDbBlockTableRecord
  2
*D45
340
0
  0
BLOCK_RECORD
  5
F9FA
330
1
100
AcDbSymbolTableRecord
100
AcDbBlockTableRecord
  2
*D46
340
0
  0
BLOCK_RECORD
  5
FA07
330
1
100
AcDbSymbolTableRecord
100
AcDbBlockTableRecord
  2
*D47
340
0
  0
BLOCK_RECORD
  5
FA14
330
1
100
AcDbSymbolTableRecord
100
AcDbBlockTableRecord
  2
*D48
340
0
  0
BLOCK_RECORD
  5
FA36
330
1
100
AcDbSymbolTableRecord
100
AcDbBlockTableRecord
  2
*D49
340
0
  0
ENDTAB
  0
ENDSEC
  0
SECTION
  2
BLOCKS
  0
BLOCK
  5
20
330
1F
100
AcDbEntity
  8
0
100
AcDbBlockBegin
  2
*Model_Space
 70
     0
 10
0.0
 20
0.0
 30
0.0
  3
*Model_Space
  1

  0
ENDBLK
  5
21
330
1F
100
AcDbEntity
  8
0
100
AcDbBlockEnd
  0
BLOCK
  5
1C
330
1B
100
AcDbEntity
 67
     1
  8
0
100
AcDbBlockBegin
  2
*Paper_Space
 70
     0
 10
0.0
 20
0.0
 30
0.0
  3
*Paper_Space
  1

  0
ENDBLK
  5
1D
330
1B
100
AcDbEntity
 67
     1
  8
0
100
AcDbBlockEnd
  0
BLOCK
  5
24
330
23
100
AcDbEntity
 67
     1
  8
0
100
AcDbBlockBegin
  2
*Paper_Space0
 70
     0
 10
0.0
 20
0.0
 30
0.0
  3
*Paper_Space0
  1

  0
ENDBLK
  5
25
330
23
100
AcDbEntity
 67
     1
  8
0
100
AcDbBlockEnd
  0
BLOCK
  5
B41A
330
B40F
100
AcDbEntity
  8
0
100
AcDbBlockBegin
  2
*D1
 70
     1
 10
0.0
 20
0.0
 30
0.0
  3
*D1
  1

  0
LINE
  5
E522
330
B40F
100
AcDbEntity
  8
COTAS
100
AcDbLine
 10
1881.958389721119
 20
2911.993475489079
 30
0.0
 11
1984.361881637013
 21
2911.993475489079
 31
0.0
  0
LINE
  5
E523
330
B40F
100
AcDbEntity
  8
COTAS
100
AcDbLine
 10
1877.73672127051
 20
2996.982814150026
 30
0.0
 11
1984.361881637013
 21
2996.982814150026
 31
0.0
  0
LINE
  5
E524
330
B40F
100
AcDbEntity
  8
COTAS
100
AcDbLine
 10
1964.361881637013
 20
2881.993475489079
 30
0.0
 11
1964.361881637013
 21
2851.993475489079
 31
0.0
  0
LINE
  5
E525
330
B40F
100
AcDbEntity
  8
COTAS
100
AcDbLine
 10
1964.361881637013
 20
3026.982814150026
 30
0.0
 11
1964.361881637013
 21
3056.982814150027
 31
0.0
  0
SOLID
  5
E526
330
B40F
100
AcDbEntity
  8
COTAS
100
AcDbTrace
 10
1959.361881637013
 20
2881.993475489079
 30
0.0
 11
1969.361881637013
 21
2881.993475489079
 31
0.0
 12
1964.361881637013
 22
2911.993475489079
 32
0.0
 13
1964.361881637013
 23
2911.993475489079
 33
0.0
  0
SOLID
  5
E527
330
B40F
100
AcDbEntity
  8
COTAS
100
AcDbTrace
 10
1959.361881637013
 20
3026.982814150026
 30
0.0
 11
1969.361881637013
 21
3026.982814150026
 31
0.0
 12
1964.361881637013
 22
2996.982814150026
 32
0.0
 13
1964.361881637013
 23
2996.982814150026
 33
0.0
  0
MTEXT
  5
E528
330
B40F
100
AcDbEntity
  8
COTAS
 62
     6
100
AcDbMText
 10
1964.361881637012
 20
2954.488144819553
 30
0.0
 40
25.0
 41
0.0
 71
     5
 72
     1
  1
\A1;80
  7
ROMANS
 11
0.0000000000000001
 21
1.0
 31
0.0
 73
     1
 44
1.0
1001
ACAD
1000
MTEXTBEGIN
1070
    73
1070
     1
1070
    44
1040
1.0
1070
    74
1070
     0
1000
MTEXTEND
  0
POINT
  5
E529
330
B40F
100
AcDbEntity
  8
Defpoints
 62
     0
100
AcDbPoint
 10
1881.958389721119
 20
2911.993475489079
 30
0.0
  0
POINT
  5
E52A
330
B40F
100
AcDbEntity
  8
Defpoints
 62
     0
100
AcDbPoint
 10
1877.73672127051
 20
2996.982814150026
 30
0.0
  0
POINT
  5
E52B
330
B40F
100
AcDbEntity
  8
Defpoints
 62
     0
100
AcDbPoint
 10
1964.361881637013
 20
2996.982814150026
 30
0.0
  0
ENDBLK
  5
B41B
330
B40F
100
AcDbEntity
  8
0
100
AcDbBlockEnd
  0
BLOCK
  5
B446
330
B43B
100
AcDbEntity
  8
0
100
AcDbBlockBegin
  2
*D2
 70
     1
 10
0.0
 20
0.0
 30
0.0
  3
*D2
  1

  0
LINE
  5
E52C
330
B43B
100
AcDbEntity
  8
COTAS
100
AcDbLine
 10
887.9583897211173
 20
2567.3339337859
 30
0.0
 11
887.9583897211173
 21
2726.626220938359
 31
0.0
  0
LINE
  5
E52D
330
B43B
100
AcDbEntity
  8
COTAS
100
AcDbLine
 10
1887.958389721118
 20
2567.3339337859
 30
0.0
 11
1887.958389721118
 21
2726.626220938359
 31
0.0
  0
LINE
  5
E52E
330
B43B
100
AcDbEntity
  8
COTAS
100
AcDbLine
 10
917.9583897211173
 20
2706.626220938359
 30
0.0
 11
1325.696484959213
 21
2706.626220938359
 31
0.0
  0
LINE
  5
E52F
330
B43B
100
AcDbEntity
  8
COTAS
100
AcDbLine
 10
1857.958389721118
 20
2706.626220938359
 30
0.0
 11
1450.220294483022
 21
2706.626220938359
 31
0.0
  0
SOLID
  5
E530
330
B43B
100
AcDbEntity
  8
COTAS
100
AcDbTrace
 10
917.9583897211173
 20
2711.626220938359
 30
0.0
 11
917.9583897211173
 21
2701.626220938359
 31
0.0
 12
887.9583897211173
 22
2706.626220938359
 32
0.0
 13
887.9583897211173
 23
2706.626220938359
 33
0.0
  0
SOLID
  5
E531
330
B43B
100
AcDbEntity
  8
COTAS
100
AcDbTrace
 10
1857.958389721118
 20
2711.626220938359
 30
0.0
 11
1857.958389721118
 21
2701.626220938359
 31
0.0
 12
1887.958389721118
 22
2706.626220938359
 32
0.0
 13
1887.958389721118
 23
2706.626220938359
 33
0.0
  0
MTEXT
  5
E532
330
B43B
100
AcDbEntity
  8
COTAS
 62
     6
100
AcDbMText
 10
1387.958389721118
 20
2706.626220938359
 30
0.0
 40
25.0
 41
0.0
 71
     5
 72
     1
  1
\A1;1000
  7
ROMANS
 73
     1
 44
1.0
1001
ACAD
1000
MTEXTBEGIN
1070
    73
1070
     1
1070
    44
1040
1.0
1070
    74
1070
     0
1000
MTEXTEND
  0
POINT
  5
E533
330
B43B
100
AcDbEntity
  8
Defpoints
 62
     0
100
AcDbPoint
 10
887.9583897211173
 20
2567.3339337859
 30
0.0
  0
POINT
  5
E534
330
B43B
100
AcDbEntity
  8
Defpoints
 62
     0
100
AcDbPoint
 10
1887.958389721118
 20
2567.3339337859
 30
0.0
  0
POINT
  5
E535
330
B43B
100
AcDbEntity
  8
Defpoints
 62
     0
100
AcDbPoint
 10
1887.958389721118
 20
2706.626220938359
 30
0.0
  0
ENDBLK
  5
B447
330
B43B
100
AcDbEntity
  8
0
100
AcDbBlockEnd
  0
BLOCK
  5
B46A
330
B45F
100
AcDbEntity
  8
0
100
AcDbBlockBegin
  2
*D3
 70
     1
 10
0.0
 20
0.0
 30
0.0
  3
*D3
  1

  0
LINE
  5
E536
330
B45F
100
AcDbEntity
  8
COTAS
100
AcDbLine
 10
1869.958389721118
 20
2584.333933785905
 30
0.0
 11
1976.286196538568
 21
2584.333933785905
 31
0.0
  0
LINE
  5
E537
330
B45F
100
AcDbEntity
  8
COTAS
100
AcDbLine
 10
1950.094389850207
 20
2399.333933785899
 30
0.0
 11
1976.286196538568
 21
2399.333933785899
 31
0.0
  0
LINE
  5
E538
330
B45F
100
AcDbEntity
  8
COTAS
100
AcDbLine
 10
1956.286196538568
 20
2554.333933785905
 30
0.0
 11
1956.286196538568
 21
2532.153961182578
 31
0.0
  0
LINE
  5
E539
330
B45F
100
AcDbEntity
  8
COTAS
100
AcDbLine
 10
1956.286196538568
 20
2429.333933785899
 30
0.0
 11
1956.286196538568
 21
2431.439675468293
 31
0.0
  0
SOLID
  5
E53A
330
B45F
100
AcDbEntity
  8
COTAS
100
AcDbTrace
 10
1951.286196538568
 20
2554.333933785905
 30
0.0
 11
1961.286196538568
 21
2554.333933785905
 31
0.0
 12
1956.286196538568
 22
2584.333933785905
 32
0.0
 13
1956.286196538568
 23
2584.333933785905
 33
0.0
  0
SOLID
  5
E53B
330
B45F
100
AcDbEntity
  8
COTAS
100
AcDbTrace
 10
1951.286196538568
 20
2429.333933785899
 30
0.0
 11
1961.286196538568
 21
2429.333933785899
 31
0.0
 12
1956.286196538568
 22
2399.333933785899
 32
0.0
 13
1956.286196538568
 23
2399.333933785899
 33
0.0
  0
MTEXT
  5
E53C
330
B45F
100
AcDbEntity
  8
COTAS
 62
     6
100
AcDbMText
 10
1956.286196538568
 20
2481.796818325436
 30
0.0
 40
25.0
 41
0.0
 71
     5
 72
     1
  1
\A1;185
  7
ROMANS
 11
0.0000000000000001
 21
1.0
 31
0.0
 73
     1
 44
1.0
1001
ACAD
1000
MTEXTBEGIN
1070
    73
1070
     1
1070
    44
1040
1.0
1070
    74
1070
     0
1000
MTEXTEND
  0
POINT
  5
E53D
330
B45F
100
AcDbEntity
  8
Defpoints
 62
     0
100
AcDbPoint
 10
1869.958389721118
 20
2584.333933785905
 30
0.0
  0
POINT
  5
E53E
330
B45F
100
AcDbEntity
  8
Defpoints
 62
     0
100
AcDbPoint
 10
1950.094389850207
 20
2399.333933785899
 30
0.0
  0
POINT
  5
E53F
330
B45F
100
AcDbEntity
  8
Defpoints
 62
     0
100
AcDbPoint
 10
1956.286196538568
 20
2399.333933785899
 30
0.0
  0
ENDBLK
  5
B46B
330
B45F
100
AcDbEntity
  8
0
100
AcDbBlockEnd
  0
BLOCK
  5
B48D
330
B482
100
AcDbEntity
  8
0
100
AcDbBlockBegin
  2
*D4
 70
     1
 10
0.0
 20
0.0
 30
0.0
  3
*D4
  1

  0
LINE
  5
E540
330
B482
100
AcDbEntity
  8
COTAS
100
AcDbLine
 10
904.9583897211181
 20
2584.333933785899
 30
0.0
 11
762.7329524733747
 21
2584.333933785899
 31
0.0
  0
LINE
  5
E541
330
B482
100
AcDbEntity
  8
COTAS
100
AcDbLine
 10
904.958389721119
 20
1884.333933785899
 30
0.0
 11
762.7329524733746
 21
1884.333933785899
 31
0.0
  0
LINE
  5
E542
330
B482
100
AcDbEntity
  8
COTAS
100
AcDbLine
 10
782.7329524733747
 20
2554.333933785899
 30
0.0
 11
782.7329524733746
 21
2265.762505214471
 31
0.0
  0
LINE
  5
E543
330
B482
100
AcDbEntity
  8
COTAS
100
AcDbLine
 10
782.7329524733746
 20
1914.333933785899
 30
0.0
 11
782.7329524733746
 21
2202.905362357327
 31
0.0
  0
SOLID
  5
E544
330
B482
100
AcDbEntity
  8
COTAS
100
AcDbTrace
 10
777.7329524733747
 20
2554.333933785899
 30
0.0
 11
787.7329524733747
 21
2554.333933785899
 31
0.0
 12
782.7329524733747
 22
2584.333933785899
 32
0.0
 13
782.7329524733747
 23
2584.333933785899
 33
0.0
  0
SOLID
  5
E545
330
B482
100
AcDbEntity
  8
COTAS
100
AcDbTrace
 10
777.7329524733747
 20
1914.333933785899
 30
0.0
 11
787.7329524733746
 21
1914.333933785899
 31
0.0
 12
782.7329524733746
 22
1884.333933785899
 32
0.0
 13
782.7329524733746
 23
1884.333933785899
 33
0.0
  0
MTEXT
  5
E546
330
B482
100
AcDbEntity
  8
COTAS
 62
     6
100
AcDbMText
 10
782.7329524733743
 20
2234.333933785899
 30
0.0
 40
30.0
 41
0.0
 71
     5
 72
     1
  1
\A1;A
  7
ROMANS
 11
0.0000000000000001
 21
1.0
 31
0.0
 73
     1
 44
1.0
1001
ACAD
1000
MTEXTBEGIN
1070
    73
1070
     1
1070
    44
1040
1.0
1070
    74
1070
     0
1000
MTEXTEND
  0
POINT
  5
E547
330
B482
100
AcDbEntity
  8
Defpoints
 62
     0
100
AcDbPoint
 10
904.9583897211181
 20
2584.333933785899
 30
0.0
  0
POINT
  5
E548
330
B482
100
AcDbEntity
  8
Defpoints
 62
     0
100
AcDbPoint
 10
904.958389721119
 20
1884.333933785899
 30
0.0
  0
POINT
  5
E549
330
B482
100
AcDbEntity
  8
Defpoints
 62
     0
100
AcDbPoint
 10
782.7329524733746
 20
1884.333933785899
 30
0.0
  0
ENDBLK
  5
B48E
330
B482
100
AcDbEntity
  8
0
100
AcDbBlockEnd
  0
BLOCK
  5
B4BC
330
B4B0
100
AcDbEntity
  8
0
100
AcDbBlockBegin
  2
*D5
 70
     1
 10
0.0
 20
0.0
 30
0.0
  3
*D5
  1

  0
LINE
  5
E54A
330
B4B0
100
AcDbEntity
  8
COTAS
100
AcDbLine
 10
1356.657034939624
 20
2901.965779771895
 30
0.0
 11
1356.657034939624
 21
2815.894567762715
 31
0.0
  0
LINE
  5
E54B
330
B4B0
100
AcDbEntity
  8
COTAS
100
AcDbLine
 10
1418.657030428527
 20
2901.989430906094
 30
0.0
 11
1418.657030428527
 21
2815.894567762715
 31
0.0
  0
LINE
  5
E54C
330
B4B0
100
AcDbEntity
  8
COTAS
100
AcDbLine
 10
1326.657034939624
 20
2833.894567762715
 30
0.0
 11
1296.657034939624
 21
2833.894567762715
 31
0.0
  0
LINE
  5
E54D
330
B4B0
100
AcDbEntity
  8
COTAS
100
AcDbLine
 10
1448.657030428527
 20
2833.894567762715
 30
0.0
 11
1478.657030428527
 21
2833.894567762715
 31
0.0
  0
LINE
  5
E54E
330
B4B0
100
AcDbEntity
  8
COTAS
100
AcDbLine
 10
1356.657034939624
 20
2833.894567762715
 30
0.0
 11
1418.657030428527
 21
2833.894567762715
 31
0.0
  0
SOLID
  5
E54F
330
B4B0
100
AcDbEntity
  8
COTAS
100
AcDbTrace
 10
1326.657034939624
 20
2838.894567762715
 30
0.0
 11
1326.657034939624
 21
2828.894567762715
 31
0.0
 12
1356.657034939624
 22
2833.894567762715
 32
0.0
 13
1356.657034939624
 23
2833.894567762715
 33
0.0
  0
SOLID
  5
E550
330
B4B0
100
AcDbEntity
  8
COTAS
100
AcDbTrace
 10
1448.657030428527
 20
2838.894567762715
 30
0.0
 11
1448.657030428527
 21
2828.894567762715
 31
0.0
 12
1418.657030428527
 22
2833.894567762715
 32
0.0
 13
1418.657030428527
 23
2833.894567762715
 33
0.0
  0
MTEXT
  5
E551
330
B4B0
100
AcDbEntity
  8
COTAS
 62
     6
100
AcDbMText
 10
1540.204649476146
 20
2833.894567762715
 30
0.0
 40
25.0
 41
0.0
 71
     5
 72
     1
  1
\A1;%%C62
  7
ROMANS
 73
     1
 44
1.0
1001
ACAD
1000
MTEXTBEGIN
1070
    73
1070
     1
1070
    44
1040
1.0
1070
    74
1070
     0
1000
MTEXTEND
  0
POINT
  5
E552
330
B4B0
100
AcDbEntity
  8
Defpoints
 62
     0
100
AcDbPoint
 10
1356.657034939624
 20
2911.965779771896
 30
0.0
  0
POINT
  5
E553
330
B4B0
100
AcDbEntity
  8
Defpoints
 62
     0
100
AcDbPoint
 10
1418.657030428527
 20
2911.989430906094
 30
0.0
  0
POINT
  5
E554
330
B4B0
100
AcDbEntity
  8
Defpoints
 62
     0
100
AcDbPoint
 10
1418.657030428527
 20
2833.894567762715
 30
0.0
  0
ENDBLK
  5
B4BD
330
B4B0
100
AcDbEntity
  8
0
100
AcDbBlockEnd
  0
BLOCK
  5
B733
330
B728
100
AcDbEntity
  8
0
100
AcDbBlockBegin
  2
*D6
 70
     1
 10
0.0
 20
0.0
 30
0.0
  3
*D6
  1

  0
LINE
  5
E555
330
B728
100
AcDbEntity
  8
COTAS
100
AcDbLine
 10
4081.958389721116
 20
2911.993475489079
 30
0.0
 11
4184.361881637011
 21
2911.993475489079
 31
0.0
  0
LINE
  5
E556
330
B728
100
AcDbEntity
  8
COTAS
100
AcDbLine
 10
4077.736721270508
 20
2996.982814150026
 30
0.0
 11
4184.361881637011
 21
2996.982814150026
 31
0.0
  0
LINE
  5
E557
330
B728
100
AcDbEntity
  8
COTAS
100
AcDbLine
 10
4164.36188163701
 20
2881.993475489079
 30
0.0
 11
4164.36188163701
 21
2851.993475489079
 31
0.0
  0
LINE
  5
E558
330
B728
100
AcDbEntity
  8
COTAS
100
AcDbLine
 10
4164.36188163701
 20
3026.982814150026
 30
0.0
 11
4164.36188163701
 21
3056.982814150027
 31
0.0
  0
SOLID
  5
E559
330
B728
100
AcDbEntity
  8
COTAS
100
AcDbTrace
 10
4159.361881637011
 20
2881.993475489079
 30
0.0
 11
4169.361881637011
 21
2881.993475489079
 31
0.0
 12
4164.36188163701
 22
2911.993475489079
 32
0.0
 13
4164.36188163701
 23
2911.993475489079
 33
0.0
  0
SOLID
  5
E55A
330
B728
100
AcDbEntity
  8
COTAS
100
AcDbTrace
 10
4159.361881637011
 20
3026.982814150026
 30
0.0
 11
4169.361881637011
 21
3026.982814150026
 31
0.0
 12
4164.36188163701
 22
2996.982814150026
 32
0.0
 13
4164.36188163701
 23
2996.982814150026
 33
0.0
  0
MTEXT
  5
E55B
330
B728
100
AcDbEntity
  8
COTAS
 62
     6
100
AcDbMText
 10
4164.36188163701
 20
2954.488144819553
 30
0.0
 40
25.0
 41
0.0
 71
     5
 72
     1
  1
\A1;80
  7
ROMANS
 11
0.0000000000000001
 21
1.0
 31
0.0
 73
     1
 44
1.0
1001
ACAD
1000
MTEXTBEGIN
1070
    73
1070
     1
1070
    44
1040
1.0
1070
    74
1070
     0
1000
MTEXTEND
  0
POINT
  5
E55C
330
B728
100
AcDbEntity
  8
Defpoints
 62
     0
100
AcDbPoint
 10
4081.958389721116
 20
2911.993475489079
 30
0.0
  0
POINT
  5
E55D
330
B728
100
AcDbEntity
  8
Defpoints
 62
     0
100
AcDbPoint
 10
4077.736721270508
 20
2996.982814150026
 30
0.0
  0
POINT
  5
E55E
330
B728
100
AcDbEntity
  8
Defpoints
 62
     0
100
AcDbPoint
 10
4164.36188163701
 20
2996.982814150026
 30
0.0
  0
ENDBLK
  5
B734
330
B728
100
AcDbEntity
  8
0
100
AcDbBlockEnd
  0
BLOCK
  5
B740
330
B735
100
AcDbEntity
  8
0
100
AcDbBlockBegin
  2
*D7
 70
     1
 10
0.0
 20
0.0
 30
0.0
  3
*D7
  1

  0
LINE
  5
E55F
330
B735
100
AcDbEntity
  8
COTAS
100
AcDbLine
 10
2887.958389721117
 20
2567.3339337859
 30
0.0
 11
2887.958389721117
 21
2726.626220938359
 31
0.0
  0
LINE
  5
E560
330
B735
100
AcDbEntity
  8
COTAS
100
AcDbLine
 10
4087.958389721118
 20
2567.3339337859
 30
0.0
 11
4087.958389721118
 21
2726.626220938359
 31
0.0
  0
LINE
  5
E561
330
B735
100
AcDbEntity
  8
COTAS
100
AcDbLine
 10
2917.958389721116
 20
2706.626220938359
 30
0.0
 11
3425.696484959213
 21
2706.626220938359
 31
0.0
  0
LINE
  5
E562
330
B735
100
AcDbEntity
  8
COTAS
100
AcDbLine
 10
4057.958389721117
 20
2706.626220938359
 30
0.0
 11
3550.220294483022
 21
2706.626220938359
 31
0.0
  0
SOLID
  5
E563
330
B735
100
AcDbEntity
  8
COTAS
100
AcDbTrace
 10
2917.958389721116
 20
2711.626220938359
 30
0.0
 11
2917.958389721116
 21
2701.626220938359
 31
0.0
 12
2887.958389721117
 22
2706.626220938359
 32
0.0
 13
2887.958389721117
 23
2706.626220938359
 33
0.0
  0
SOLID
  5
E564
330
B735
100
AcDbEntity
  8
COTAS
100
AcDbTrace
 10
4057.958389721117
 20
2711.626220938359
 30
0.0
 11
4057.958389721117
 21
2701.626220938359
 31
0.0
 12
4087.958389721118
 22
2706.626220938359
 32
0.0
 13
4087.958389721118
 23
2706.626220938359
 33
0.0
  0
MTEXT
  5
E565
330
B735
100
AcDbEntity
  8
COTAS
 62
     6
100
AcDbMText
 10
3487.958389721117
 20
2706.626220938359
 30
0.0
 40
25.0
 41
0.0
 71
     5
 72
     1
  1
\A1;1200
  7
ROMANS
 73
     1
 44
1.0
1001
ACAD
1000
MTEXTBEGIN
1070
    73
1070
     1
1070
    44
1040
1.0
1070
    74
1070
     0
1000
MTEXTEND
  0
POINT
  5
E566
330
B735
100
AcDbEntity
  8
Defpoints
 62
     0
100
AcDbPoint
 10
2887.958389721117
 20
2567.3339337859
 30
0.0
  0
POINT
  5
E567
330
B735
100
AcDbEntity
  8
Defpoints
 62
     0
100
AcDbPoint
 10
4087.958389721118
 20
2567.3339337859
 30
0.0
  0
POINT
  5
E568
330
B735
100
AcDbEntity
  8
Defpoints
 62
     0
100
AcDbPoint
 10
4087.958389721118
 20
2706.626220938359
 30
0.0
  0
ENDBLK
  5
B741
330
B735
100
AcDbEntity
  8
0
100
AcDbBlockEnd
  0
BLOCK
  5
B74D
330
B742
100
AcDbEntity
  8
0
100
AcDbBlockBegin
  2
*D8
 70
     1
 10
0.0
 20
0.0
 30
0.0
  3
*D8
  1

  0
LINE
  5
E569
330
B742
100
AcDbEntity
  8
COTAS
100
AcDbLine
 10
4069.958389721118
 20
2584.333933785905
 30
0.0
 11
4176.286196538568
 21
2584.333933785905
 31
0.0
  0
LINE
  5
E56A
330
B742
100
AcDbEntity
  8
COTAS
100
AcDbLine
 10
4150.094389850206
 20
2399.333933785899
 30
0.0
 11
4176.286196538568
 21
2399.333933785899
 31
0.0
  0
LINE
  5
E56B
330
B742
100
AcDbEntity
  8
COTAS
100
AcDbLine
 10
4156.286196538569
 20
2554.333933785905
 30
0.0
 11
4156.286196538569
 21
2532.153961182578
 31
0.0
  0
LINE
  5
E56C
330
B742
100
AcDbEntity
  8
COTAS
100
AcDbLine
 10
4156.286196538569
 20
2429.333933785899
 30
0.0
 11
4156.286196538569
 21
2431.439675468293
 31
0.0
  0
SOLID
  5
E56D
330
B742
100
AcDbEntity
  8
COTAS
100
AcDbTrace
 10
4151.286196538568
 20
2554.333933785905
 30
0.0
 11
4161.286196538568
 21
2554.333933785905
 31
0.0
 12
4156.286196538569
 22
2584.333933785905
 32
0.0
 13
4156.286196538569
 23
2584.333933785905
 33
0.0
  0
SOLID
  5
E56E
330
B742
100
AcDbEntity
  8
COTAS
100
AcDbTrace
 10
4151.286196538568
 20
2429.333933785899
 30
0.0
 11
4161.286196538568
 21
2429.333933785899
 31
0.0
 12
4156.286196538569
 22
2399.333933785899
 32
0.0
 13
4156.286196538569
 23
2399.333933785899
 33
0.0
  0
MTEXT
  5
E56F
330
B742
100
AcDbEntity
  8
COTAS
 62
     6
100
AcDbMText
 10
4156.286196538567
 20
2481.796818325436
 30
0.0
 40
25.0
 41
0.0
 71
     5
 72
     1
  1
\A1;185
  7
ROMANS
 11
0.0000000000000001
 21
1.0
 31
0.0
 73
     1
 44
1.0
1001
ACAD
1000
MTEXTBEGIN
1070
    73
1070
     1
1070
    44
1040
1.0
1070
    74
1070
     0
1000
MTEXTEND
  0
POINT
  5
E570
330
B742
100
AcDbEntity
  8
Defpoints
 62
     0
100
AcDbPoint
 10
4069.958389721118
 20
2584.333933785905
 30
0.0
  0
POINT
  5
E571
330
B742
100
AcDbEntity
  8
Defpoints
 62
     0
100
AcDbPoint
 10
4150.094389850206
 20
2399.333933785899
 30
0.0
  0
POINT
  5
E572
330
B742
100
AcDbEntity
  8
Defpoints
 62
     0
100
AcDbPoint
 10
4156.286196538569
 20
2399.333933785899
 30
0.0
  0
ENDBLK
  5
B74E
330
B742
100
AcDbEntity
  8
0
100
AcDbBlockEnd
  0
BLOCK
  5
B75A
330
B74F
100
AcDbEntity
  8
0
100
AcDbBlockBegin
  2
*D9
 70
     1
 10
0.0
 20
0.0
 30
0.0
  3
*D9
  1

  0
LINE
  5
E573
330
B74F
100
AcDbEntity
  8
COTAS
100
AcDbLine
 10
2904.958389721118
 20
2584.333933785899
 30
0.0
 11
2762.732952473374
 21
2584.333933785899
 31
0.0
  0
LINE
  5
E574
330
B74F
100
AcDbEntity
  8
COTAS
100
AcDbLine
 10
2904.958389721118
 20
1884.333933785899
 30
0.0
 11
2762.732952473374
 21
1884.333933785899
 31
0.0
  0
LINE
  5
E575
330
B74F
100
AcDbEntity
  8
COTAS
100
AcDbLine
 10
2782.732952473374
 20
2554.333933785899
 30
0.0
 11
2782.732952473374
 21
2265.762505214471
 31
0.0
  0
LINE
  5
E576
330
B74F
100
AcDbEntity
  8
COTAS
100
AcDbLine
 10
2782.732952473374
 20
1914.333933785899
 30
0.0
 11
2782.732952473374
 21
2202.905362357328
 31
0.0
  0
SOLID
  5
E577
330
B74F
100
AcDbEntity
  8
COTAS
100
AcDbTrace
 10
2777.732952473374
 20
2554.333933785899
 30
0.0
 11
2787.732952473374
 21
2554.333933785899
 31
0.0
 12
2782.732952473374
 22
2584.333933785899
 32
0.0
 13
2782.732952473374
 23
2584.333933785899
 33
0.0
  0
SOLID
  5
E578
330
B74F
100
AcDbEntity
  8
COTAS
100
AcDbTrace
 10
2777.732952473374
 20
1914.333933785899
 30
0.0
 11
2787.732952473374
 21
1914.333933785899
 31
0.0
 12
2782.732952473374
 22
1884.333933785899
 32
0.0
 13
2782.732952473374
 23
1884.333933785899
 33
0.0
  0
MTEXT
  5
E579
330
B74F
100
AcDbEntity
  8
COTAS
 62
     6
100
AcDbMText
 10
2782.732952473373
 20
2234.3339337859
 30
0.0
 40
30.0
 41
0.0
 71
     5
 72
     1
  1
\A1;A
  7
ROMANS
 11
0.0000000000000001
 21
1.0
 31
0.0
 73
     1
 44
1.0
1001
ACAD
1000
MTEXTBEGIN
1070
    73
1070
     1
1070
    44
1040
1.0
1070
    74
1070
     0
1000
MTEXTEND
  0
POINT
  5
E57A
330
B74F
100
AcDbEntity
  8
Defpoints
 62
     0
100
AcDbPoint
 10
2904.958389721118
 20
2584.333933785899
 30
0.0
  0
POINT
  5
E57B
330
B74F
100
AcDbEntity
  8
Defpoints
 62
     0
100
AcDbPoint
 10
2904.958389721118
 20
1884.333933785899
 30
0.0
  0
POINT
  5
E57C
330
B74F
100
AcDbEntity
  8
Defpoints
 62
     0
100
AcDbPoint
 10
2782.732952473374
 20
1884.333933785899
 30
0.0
  0
ENDBLK
  5
B75B
330
B74F
100
AcDbEntity
  8
0
100
AcDbBlockEnd
  0
BLOCK
  5
B768
330
B75C
100
AcDbEntity
  8
0
100
AcDbBlockBegin
  2
*D10
 70
     1
 10
0.0
 20
0.0
 30
0.0
  3
*D10
  1

  0
LINE
  5
E57D
330
B75C
100
AcDbEntity
  8
COTAS
100
AcDbLine
 10
3456.657034939624
 20
2901.965779771895
 30
0.0
 11
3456.657034939624
 21
2815.894567762715
 31
0.0
  0
LINE
  5
E57E
330
B75C
100
AcDbEntity
  8
COTAS
100
AcDbLine
 10
3518.657030428527
 20
2901.989430906094
 30
0.0
 11
3518.657030428527
 21
2815.894567762715
 31
0.0
  0
LINE
  5
E57F
330
B75C
100
AcDbEntity
  8
COTAS
100
AcDbLine
 10
3426.657034939625
 20
2833.894567762715
 30
0.0
 11
3396.657034939624
 21
2833.894567762715
 31
0.0
  0
LINE
  5
E580
330
B75C
100
AcDbEntity
  8
COTAS
100
AcDbLine
 10
3548.657030428528
 20
2833.894567762715
 30
0.0
 11
3578.657030428527
 21
2833.894567762715
 31
0.0
  0
LINE
  5
E581
330
B75C
100
AcDbEntity
  8
COTAS
100
AcDbLine
 10
3456.657034939624
 20
2833.894567762715
 30
0.0
 11
3518.657030428527
 21
2833.894567762715
 31
0.0
  0
SOLID
  5
E582
330
B75C
100
AcDbEntity
  8
COTAS
100
AcDbTrace
 10
3426.657034939625
 20
2838.894567762715
 30
0.0
 11
3426.657034939625
 21
2828.894567762715
 31
0.0
 12
3456.657034939624
 22
2833.894567762715
 32
0.0
 13
3456.657034939624
 23
2833.894567762715
 33
0.0
  0
SOLID
  5
E583
330
B75C
100
AcDbEntity
  8
COTAS
100
AcDbTrace
 10
3548.657030428528
 20
2838.894567762715
 30
0.0
 11
3548.657030428528
 21
2828.894567762715
 31
0.0
 12
3518.657030428527
 22
2833.894567762715
 32
0.0
 13
3518.657030428527
 23
2833.894567762715
 33
0.0
  0
MTEXT
  5
E584
330
B75C
100
AcDbEntity
  8
COTAS
 62
     6
100
AcDbMText
 10
3640.204649476146
 20
2833.894567762715
 30
0.0
 40
25.0
 41
0.0
 71
     5
 72
     1
  1
\A1;%%C62
  7
ROMANS
 73
     1
 44
1.0
1001
ACAD
1000
MTEXTBEGIN
1070
    73
1070
     1
1070
    44
1040
1.0
1070
    74
1070
     0
1000
MTEXTEND
  0
POINT
  5
E585
330
B75C
100
AcDbEntity
  8
Defpoints
 62
     0
100
AcDbPoint
 10
3456.657034939624
 20
2911.965779771896
 30
0.0
  0
POINT
  5
E586
330
B75C
100
AcDbEntity
  8
Defpoints
 62
     0
100
AcDbPoint
 10
3518.657030428527
 20
2911.989430906094
 30
0.0
  0
POINT
  5
E587
330
B75C
100
AcDbEntity
  8
Defpoints
 62
     0
100
AcDbPoint
 10
3518.657030428527
 20
2833.894567762715
 30
0.0
  0
ENDBLK
  5
B769
330
B75C
100
AcDbEntity
  8
0
100
AcDbBlockEnd
  0
BLOCK
  5
BE71
330
BE66
100
AcDbEntity
  8
0
100
AcDbBlockBegin
  2
*D11
 70
     1
 10
0.0
 20
0.0
 30
0.0
  3
*D11
  1

  0
LINE
  5
E59C
330
BE66
100
AcDbEntity
  8
COTAS
100
AcDbLine
 10
1831.958389721117
 20
-115.0702878249176
 30
0.0
 11
1934.361881637011
 21
-115.0702878249176
 31
0.0
  0
LINE
  5
E59D
330
BE66
100
AcDbEntity
  8
COTAS
100
AcDbLine
 10
1827.736721270508
 20
-30.08094916397022
 30
0.0
 11
1934.361881637011
 21
-30.08094916397025
 31
0.0
  0
LINE
  5
E59E
330
BE66
100
AcDbEntity
  8
COTAS
100
AcDbLine
 10
1914.361881637011
 20
-145.0702878249176
 30
0.0
 11
1914.361881637011
 21
-175.0702878249176
 31
0.0
  0
LINE
  5
E59F
330
BE66
100
AcDbEntity
  8
COTAS
100
AcDbLine
 10
1914.361881637011
 20
-0.080949163970241
 30
0.0
 11
1914.361881637011
 21
29.91905083602976
 31
0.0
  0
SOLID
  5
E5A0
330
BE66
100
AcDbEntity
  8
COTAS
100
AcDbTrace
 10
1909.361881637011
 20
-145.0702878249176
 30
0.0
 11
1919.361881637011
 21
-145.0702878249176
 31
0.0
 12
1914.361881637011
 22
-115.0702878249176
 32
0.0
 13
1914.361881637011
 23
-115.0702878249176
 33
0.0
  0
SOLID
  5
E5A1
330
BE66
100
AcDbEntity
  8
COTAS
100
AcDbTrace
 10
1909.361881637011
 20
-0.0809491639702399
 30
0.0
 11
1919.361881637011
 21
-0.0809491639702421
 31
0.0
 12
1914.361881637011
 22
-30.08094916397024
 32
0.0
 13
1914.361881637011
 23
-30.08094916397024
 33
0.0
  0
MTEXT
  5
E5A2
330
BE66
100
AcDbEntity
  8
COTAS
 62
     6
100
AcDbMText
 10
1914.361881637011
 20
-72.57561849444361
 30
0.0
 40
25.0
 41
0.0
 71
     5
 72
     1
  1
\A1;80
  7
ROMANS
 11
0.0000000000000001
 21
1.0
 31
0.0
 73
     1
 44
1.0
1001
ACAD
1000
MTEXTBEGIN
1070
    73
1070
     1
1070
    44
1040
1.0
1070
    74
1070
     0
1000
MTEXTEND
  0
POINT
  5
E5A3
330
BE66
100
AcDbEntity
  8
Defpoints
 62
     0
100
AcDbPoint
 10
1831.958389721117
 20
-115.0702878249176
 30
0.0
  0
POINT
  5
E5A4
330
BE66
100
AcDbEntity
  8
Defpoints
 62
     0
100
AcDbPoint
 10
1827.736721270508
 20
-30.08094916397022
 30
0.0
  0
POINT
  5
E5A5
330
BE66
100
AcDbEntity
  8
Defpoints
 62
     0
100
AcDbPoint
 10
1914.361881637011
 20
-30.08094916397024
 30
0.0
  0
ENDBLK
  5
BE72
330
BE66
100
AcDbEntity
  8
0
100
AcDbBlockEnd
  0
BLOCK
  5
BE7E
330
BE73
100
AcDbEntity
  8
0
100
AcDbBlockBegin
  2
*D12
 70
     1
 10
0.0
 20
0.0
 30
0.0
  3
*D12
  1

  0
LINE
  5
E588
330
BE73
100
AcDbEntity
  8
COTAS
100
AcDbLine
 10
937.9583897211169
 20
-459.7298295280961
 30
0.0
 11
937.9583897211169
 21
-300.4375423756374
 31
0.0
  0
LINE
  5
E589
330
BE73
100
AcDbEntity
  8
COTAS
100
AcDbLine
 10
1837.958389721119
 20
-459.7298295280961
 30
0.0
 11
1837.958389721119
 21
-300.4375423756374
 31
0.0
  0
LINE
  5
E58A
330
BE73
100
AcDbEntity
  8
COTAS
100
AcDbLine
 10
967.9583897211168
 20
-320.4375423756374
 30
0.0
 11
1335.815532578261
 21
-320.4375423756374
 31
0.0
  0
LINE
  5
E58B
330
BE73
100
AcDbEntity
  8
COTAS
100
AcDbLine
 10
1807.958389721118
 20
-320.4375423756374
 30
0.0
 11
1440.101246863975
 21
-320.4375423756374
 31
0.0
  0
SOLID
  5
E58C
330
BE73
100
AcDbEntity
  8
COTAS
100
AcDbTrace
 10
967.9583897211168
 20
-315.4375423756373
 30
0.0
 11
967.9583897211168
 21
-325.4375423756374
 31
0.0
 12
937.9583897211169
 22
-320.4375423756374
 32
0.0
 13
937.9583897211169
 23
-320.4375423756374
 33
0.0
  0
SOLID
  5
E58D
330
BE73
100
AcDbEntity
  8
COTAS
100
AcDbTrace
 10
1807.958389721118
 20
-315.4375423756373
 30
0.0
 11
1807.958389721118
 21
-325.4375423756374
 31
0.0
 12
1837.958389721119
 22
-320.4375423756374
 32
0.0
 13
1837.958389721119
 23
-320.4375423756374
 33
0.0
  0
MTEXT
  5
E58E
330
BE73
100
AcDbEntity
  8
COTAS
 62
     6
100
AcDbMText
 10
1387.958389721118
 20
-320.4375423756374
 30
0.0
 40
25.0
 41
0.0
 71
     5
 72
     1
  1
\A1;900
  7
ROMANS
 73
     1
 44
1.0
1001
ACAD
1000
MTEXTBEGIN
1070
    73
1070
     1
1070
    44
1040
1.0
1070
    74
1070
     0
1000
MTEXTEND
  0
POINT
  5
E58F
330
BE73
100
AcDbEntity
  8
Defpoints
 62
     0
100
AcDbPoint
 10
937.9583897211169
 20
-459.7298295280961
 30
0.0
  0
POINT
  5
E590
330
BE73
100
AcDbEntity
  8
Defpoints
 62
     0
100
AcDbPoint
 10
1837.958389721119
 20
-459.7298295280961
 30
0.0
  0
POINT
  5
E591
330
BE73
100
AcDbEntity
  8
Defpoints
 62
     0
100
AcDbPoint
 10
1837.958389721119
 20
-320.4375423756374
 30
0.0
  0
ENDBLK
  5
BE7F
330
BE73
100
AcDbEntity
  8
0
100
AcDbBlockEnd
  0
BLOCK
  5
BE8B
330
BE80
100
AcDbEntity
  8
0
100
AcDbBlockBegin
  2
*D13
 70
     1
 10
0.0
 20
0.0
 30
0.0
  3
*D13
  1

  0
LINE
  5
E5A6
330
BE80
100
AcDbEntity
  8
COTAS
100
AcDbLine
 10
1820.958389721116
 20
-442.729829528097
 30
0.0
 11
1927.286196538566
 21
-442.7298295280971
 31
0.0
  0
LINE
  5
E5A7
330
BE80
100
AcDbEntity
  8
COTAS
100
AcDbLine
 10
1901.094389850205
 20
-627.7298295281034
 30
0.0
 11
1927.286196538566
 21
-627.7298295281034
 31
0.0
  0
LINE
  5
E5A8
330
BE80
100
AcDbEntity
  8
COTAS
100
AcDbLine
 10
1907.286196538566
 20
-472.729829528097
 30
0.0
 11
1907.286196538566
 21
-494.9098021314235
 31
0.0
  0
LINE
  5
E5A9
330
BE80
100
AcDbEntity
  8
COTAS
100
AcDbLine
 10
1907.286196538566
 20
-597.7298295281034
 30
0.0
 11
1907.286196538566
 21
-595.6240878457093
 31
0.0
  0
SOLID
  5
E5AA
330
BE80
100
AcDbEntity
  8
COTAS
100
AcDbTrace
 10
1902.286196538566
 20
-472.729829528097
 30
0.0
 11
1912.286196538566
 21
-472.729829528097
 31
0.0
 12
1907.286196538566
 22
-442.729829528097
 32
0.0
 13
1907.286196538566
 23
-442.729829528097
 33
0.0
  0
SOLID
  5
E5AB
330
BE80
100
AcDbEntity
  8
COTAS
100
AcDbTrace
 10
1902.286196538566
 20
-597.7298295281034
 30
0.0
 11
1912.286196538566
 21
-597.7298295281034
 31
0.0
 12
1907.286196538566
 22
-627.7298295281034
 32
0.0
 13
1907.286196538566
 23
-627.7298295281034
 33
0.0
  0
MTEXT
  5
E5AC
330
BE80
100
AcDbEntity
  8
COTAS
 62
     6
100
AcDbMText
 10
1907.286196538566
 20
-545.2669449885661
 30
0.0
 40
25.0
 41
0.0
 71
     5
 72
     1
  1
\A1;185
  7
ROMANS
 11
0.0000000000000001
 21
1.0
 31
0.0
 73
     1
 44
1.0
1001
ACAD
1000
MTEXTBEGIN
1070
    73
1070
     1
1070
    44
1040
1.0
1070
    74
1070
     0
1000
MTEXTEND
  0
POINT
  5
E5AD
330
BE80
100
AcDbEntity
  8
Defpoints
 62
     0
100
AcDbPoint
 10
1820.958389721116
 20
-442.729829528097
 30
0.0
  0
POINT
  5
E5AE
330
BE80
100
AcDbEntity
  8
Defpoints
 62
     0
100
AcDbPoint
 10
1901.094389850205
 20
-627.7298295281034
 30
0.0
  0
POINT
  5
E5AF
330
BE80
100
AcDbEntity
  8
Defpoints
 62
     0
100
AcDbPoint
 10
1907.286196538566
 20
-627.7298295281034
 30
0.0
  0
ENDBLK
  5
BE8C
330
BE80
100
AcDbEntity
  8
0
100
AcDbBlockEnd
  0
BLOCK
  5
BE98
330
BE8D
100
AcDbEntity
  8
0
100
AcDbBlockBegin
  2
*D14
 70
     1
 10
0.0
 20
0.0
 30
0.0
  3
*D14
  1

  0
LINE
  5
E592
330
BE8D
100
AcDbEntity
  8
COTAS
100
AcDbLine
 10
954.9583897211187
 20
-442.729829528097
 30
0.0
 11
812.7329524733752
 21
-442.7298295280969
 31
0.0
  0
LINE
  5
E593
330
BE8D
100
AcDbEntity
  8
COTAS
100
AcDbLine
 10
954.9583897211187
 20
-1342.729829528097
 30
0.0
 11
812.7329524733749
 21
-1342.729829528097
 31
0.0
  0
LINE
  5
E594
330
BE8D
100
AcDbEntity
  8
COTAS
100
AcDbLine
 10
832.7329524733752
 20
-472.729829528097
 30
0.0
 11
832.7329524733752
 21
-840.5869723852401
 31
0.0
  0
LINE
  5
E595
330
BE8D
100
AcDbEntity
  8
COTAS
100
AcDbLine
 10
832.732952473375
 20
-1312.729829528097
 30
0.0
 11
832.7329524733752
 21
-944.8726866709543
 31
0.0
  0
SOLID
  5
E596
330
BE8D
100
AcDbEntity
  8
COTAS
100
AcDbTrace
 10
827.7329524733753
 20
-472.729829528097
 30
0.0
 11
837.7329524733752
 21
-472.729829528097
 31
0.0
 12
832.7329524733752
 22
-442.7298295280969
 32
0.0
 13
832.7329524733752
 23
-442.7298295280969
 33
0.0
  0
SOLID
  5
E597
330
BE8D
100
AcDbEntity
  8
COTAS
100
AcDbTrace
 10
827.7329524733749
 20
-1312.729829528097
 30
0.0
 11
837.7329524733749
 21
-1312.729829528097
 31
0.0
 12
832.732952473375
 22
-1342.729829528097
 32
0.0
 13
832.732952473375
 23
-1342.729829528097
 33
0.0
  0
MTEXT
  5
E598
330
BE8D
100
AcDbEntity
  8
COTAS
 62
     6
100
AcDbMText
 10
832.7329524733753
 20
-892.7298295280969
 30
0.0
 40
25.0
 41
0.0
 71
     5
 72
     1
  1
\A1;900
  7
ROMANS
 11
0.0000000000000001
 21
1.0
 31
0.0
 73
     1
 44
1.0
1001
ACAD
1000
MTEXTBEGIN
1070
    73
1070
     1
1070
    44
1040
1.0
1070
    74
1070
     0
1000
MTEXTEND
  0
POINT
  5
E599
330
BE8D
100
AcDbEntity
  8
Defpoints
 62
     0
100
AcDbPoint
 10
954.9583897211187
 20
-442.729829528097
 30
0.0
  0
POINT
  5
E59A
330
BE8D
100
AcDbEntity
  8
Defpoints
 62
     0
100
AcDbPoint
 10
954.9583897211187
 20
-1342.729829528097
 30
0.0
  0
POINT
  5
E59B
330
BE8D
100
AcDbEntity
  8
Defpoints
 62
     0
100
AcDbPoint
 10
832.732952473375
 20
-1342.729829528097
 30
0.0
  0
ENDBLK
  5
BE99
330
BE8D
100
AcDbEntity
  8
0
100
AcDbBlockEnd
  0
BLOCK
  5
BF95
330
BF89
100
AcDbEntity
  8
0
100
AcDbBlockBegin
  2
*D15
 70
     1
 10
0.0
 20
0.0
 30
0.0
  3
*D15
  1

  0
LINE
  5
E5B0
330
BF89
100
AcDbEntity
  8
COTAS
100
AcDbLine
 10
1356.657034939624
 20
-125.0979835421003
 30
0.0
 11
1356.657034939624
 21
-211.1691955512811
 31
0.0
  0
LINE
  5
E5B1
330
BF89
100
AcDbEntity
  8
COTAS
100
AcDbLine
 10
1418.657030428527
 20
-125.0743324079017
 30
0.0
 11
1418.657030428527
 21
-211.1691955512811
 31
0.0
  0
LINE
  5
E5B2
330
BF89
100
AcDbEntity
  8
COTAS
100
AcDbLine
 10
1326.657034939624
 20
-193.169195551281
 30
0.0
 11
1296.657034939624
 21
-193.169195551281
 31
0.0
  0
LINE
  5
E5B3
330
BF89
100
AcDbEntity
  8
COTAS
100
AcDbLine
 10
1448.657030428527
 20
-193.169195551281
 30
0.0
 11
1478.657030428527
 21
-193.169195551281
 31
0.0
  0
LINE
  5
E5B4
330
BF89
100
AcDbEntity
  8
COTAS
100
AcDbLine
 10
1356.657034939624
 20
-193.169195551281
 30
0.0
 11
1418.657030428527
 21
-193.169195551281
 31
0.0
  0
SOLID
  5
E5B5
330
BF89
100
AcDbEntity
  8
COTAS
100
AcDbTrace
 10
1326.657034939624
 20
-188.169195551281
 30
0.0
 11
1326.657034939624
 21
-198.169195551281
 31
0.0
 12
1356.657034939624
 22
-193.169195551281
 32
0.0
 13
1356.657034939624
 23
-193.169195551281
 33
0.0
  0
SOLID
  5
E5B6
330
BF89
100
AcDbEntity
  8
COTAS
100
AcDbTrace
 10
1448.657030428527
 20
-188.169195551281
 30
0.0
 11
1448.657030428527
 21
-198.169195551281
 31
0.0
 12
1418.657030428527
 22
-193.169195551281
 32
0.0
 13
1418.657030428527
 23
-193.169195551281
 33
0.0
  0
MTEXT
  5
E5B7
330
BF89
100
AcDbEntity
  8
COTAS
 62
     6
100
AcDbMText
 10
1540.204649476146
 20
-193.169195551281
 30
0.0
 40
25.0
 41
0.0
 71
     5
 72
     1
  1
\A1;%%C62
  7
ROMANS
 73
     1
 44
1.0
1001
ACAD
1000
MTEXTBEGIN
1070
    73
1070
     1
1070
    44
1040
1.0
1070
    74
1070
     0
1000
MTEXTEND
  0
POINT
  5
E5B8
330
BF89
100
AcDbEntity
  8
Defpoints
 62
     0
100
AcDbPoint
 10
1356.657034939624
 20
-115.0979835421003
 30
0.0
  0
POINT
  5
E5B9
330
BF89
100
AcDbEntity
  8
Defpoints
 62
     0
100
AcDbPoint
 10
1418.657030428527
 20
-115.0743324079017
 30
0.0
  0
POINT
  5
E5BA
330
BF89
100
AcDbEntity
  8
Defpoints
 62
     0
100
AcDbPoint
 10
1418.657030428527
 20
-193.169195551281
 30
0.0
  0
ENDBLK
  5
BF96
330
BF89
100
AcDbEntity
  8
0
100
AcDbBlockEnd
  0
BLOCK
  5
CF19
330
CF0E
100
AcDbEntity
  8
0
100
AcDbBlockBegin
  2
*D16
 70
     1
 10
0.0
 20
0.0
 30
0.0
  3
*D16
  1

  0
LINE
  5
E5BB
330
CF0E
100
AcDbEntity
  8
COTAS
100
AcDbLine
 10
3037.958389721131
 20
-459.729829528097
 30
0.0
 11
3037.958389721131
 21
-300.4375423756382
 31
0.0
  0
LINE
  5
E5BC
330
CF0E
100
AcDbEntity
  8
COTAS
100
AcDbLine
 10
3937.958389721139
 20
-459.7298295280897
 30
0.0
 11
3937.958389721139
 21
-300.4375423756382
 31
0.0
  0
LINE
  5
E5BD
330
CF0E
100
AcDbEntity
  8
COTAS
100
AcDbLine
 10
3067.958389721132
 20
-320.4375423756383
 30
0.0
 11
3435.815532578278
 21
-320.4375423756383
 31
0.0
  0
LINE
  5
E5BE
330
CF0E
100
AcDbEntity
  8
COTAS
100
AcDbLine
 10
3907.958389721139
 20
-320.4375423756383
 30
0.0
 11
3540.101246863993
 21
-320.4375423756383
 31
0.0
  0
SOLID
  5
E5BF
330
CF0E
100
AcDbEntity
  8
COTAS
100
AcDbTrace
 10
3067.958389721132
 20
-315.4375423756383
 30
0.0
 11
3067.958389721132
 21
-325.4375423756382
 31
0.0
 12
3037.958389721131
 22
-320.4375423756383
 32
0.0
 13
3037.958389721131
 23
-320.4375423756383
 33
0.0
  0
SOLID
  5
E5C0
330
CF0E
100
AcDbEntity
  8
COTAS
100
AcDbTrace
 10
3907.958389721139
 20
-315.4375423756383
 30
0.0
 11
3907.958389721139
 21
-325.4375423756382
 31
0.0
 12
3937.958389721139
 22
-320.4375423756383
 32
0.0
 13
3937.958389721139
 23
-320.4375423756383
 33
0.0
  0
MTEXT
  5
E5C1
330
CF0E
100
AcDbEntity
  8
COTAS
 62
     6
100
AcDbMText
 10
3487.958389721136
 20
-320.4375423756383
 30
0.0
 40
25.0
 41
0.0
 71
     5
 72
     1
  1
\A1;900
  7
ROMANS
 73
     1
 44
1.0
1001
ACAD
1000
MTEXTBEGIN
1070
    73
1070
     1
1070
    44
1040
1.0
1070
    74
1070
     0
1000
MTEXTEND
  0
POINT
  5
E5C2
330
CF0E
100
AcDbEntity
  8
Defpoints
 62
     0
100
AcDbPoint
 10
3037.958389721131
 20
-459.729829528097
 30
0.0
  0
POINT
  5
E5C3
330
CF0E
100
AcDbEntity
  8
Defpoints
 62
     0
100
AcDbPoint
 10
3937.958389721139
 20
-459.7298295280897
 30
0.0
  0
POINT
  5
E5C4
330
CF0E
100
AcDbEntity
  8
Defpoints
 62
     0
100
AcDbPoint
 10
3937.958389721139
 20
-320.4375423756383
 30
0.0
  0
ENDBLK
  5
CF1A
330
CF0E
100
AcDbEntity
  8
0
100
AcDbBlockEnd
  0
BLOCK
  5
CF45
330
CF3A
100
AcDbEntity
  8
0
100
AcDbBlockBegin
  2
*D17
 70
     1
 10
0.0
 20
0.0
 30
0.0
  3
*D17
  1

  0
LINE
  5
E5C5
330
CF3A
100
AcDbEntity
  8
COTAS
100
AcDbLine
 10
3054.958389721139
 20
-442.7298295280897
 30
0.0
 11
2895.666102568688
 21
-442.7298295280897
 31
0.0
  0
LINE
  5
E5C6
330
CF3A
100
AcDbEntity
  8
COTAS
100
AcDbLine
 10
3054.958389721139
 20
-1342.72982952809
 30
0.0
 11
2895.666102568688
 21
-1342.72982952809
 31
0.0
  0
LINE
  5
E5C7
330
CF3A
100
AcDbEntity
  8
COTAS
100
AcDbLine
 10
2915.666102568687
 20
-472.7298295280897
 30
0.0
 11
2915.666102568687
 21
-840.586972385233
 31
0.0
  0
LINE
  5
E5C8
330
CF3A
100
AcDbEntity
  8
COTAS
100
AcDbLine
 10
2915.666102568687
 20
-1312.72982952809
 30
0.0
 11
2915.666102568687
 21
-944.8726866709471
 31
0.0
  0
SOLID
  5
E5C9
330
CF3A
100
AcDbEntity
  8
COTAS
100
AcDbTrace
 10
2910.666102568688
 20
-472.7298295280897
 30
0.0
 11
2920.666102568688
 21
-472.7298295280897
 31
0.0
 12
2915.666102568687
 22
-442.7298295280897
 32
0.0
 13
2915.666102568687
 23
-442.7298295280897
 33
0.0
  0
SOLID
  5
E5CA
330
CF3A
100
AcDbEntity
  8
COTAS
100
AcDbTrace
 10
2910.666102568687
 20
-1312.72982952809
 30
0.0
 11
2920.666102568688
 21
-1312.72982952809
 31
0.0
 12
2915.666102568687
 22
-1342.72982952809
 32
0.0
 13
2915.666102568687
 23
-1342.72982952809
 33
0.0
  0
MTEXT
  5
E5CB
330
CF3A
100
AcDbEntity
  8
COTAS
 62
     6
100
AcDbMText
 10
2915.666102568687
 20
-892.7298295280895
 30
0.0
 40
25.0
 41
0.0
 71
     5
 72
     1
  1
\A1;900
  7
ROMANS
 11
0.0000000000000001
 21
1.0
 31
0.0
 73
     1
 44
1.0
1001
ACAD
1000
MTEXTBEGIN
1070
    73
1070
     1
1070
    44
1040
1.0
1070
    74
1070
     0
1000
MTEXTEND
  0
POINT
  5
E5CC
330
CF3A
100
AcDbEntity
  8
Defpoints
 62
     0
100
AcDbPoint
 10
3054.958389721139
 20
-442.7298295280897
 30
0.0
  0
POINT
  5
E5CD
330
CF3A
100
AcDbEntity
  8
Defpoints
 62
     0
100
AcDbPoint
 10
3054.958389721139
 20
-1342.72982952809
 30
0.0
  0
POINT
  5
E5CE
330
CF3A
100
AcDbEntity
  8
Defpoints
 62
     0
100
AcDbPoint
 10
2915.666102568687
 20
-1342.72982952809
 30
0.0
  0
ENDBLK
  5
CF46
330
CF3A
100
AcDbEntity
  8
0
100
AcDbBlockEnd
  0
BLOCK
  5
D0CF
330
D0C4
100
AcDbEntity
  8
0
100
AcDbBlockBegin
  2
*D18
 70
     1
 10
0.0
 20
0.0
 30
0.0
  3
*D18
  1

  0
LINE
  5
E5CF
330
D0C4
100
AcDbEntity
  8
COTAS
100
AcDbLine
 10
3931.958389721118
 20
-115.0702878249176
 30
0.0
 11
4034.361881637011
 21
-115.0702878249176
 31
0.0
  0
LINE
  5
E5D0
330
D0C4
100
AcDbEntity
  8
COTAS
100
AcDbLine
 10
3927.736721270509
 20
-30.08094916397022
 30
0.0
 11
4034.361881637011
 21
-30.08094916397025
 31
0.0
  0
LINE
  5
E5D1
330
D0C4
100
AcDbEntity
  8
COTAS
100
AcDbLine
 10
4014.36188163701
 20
-145.0702878249176
 30
0.0
 11
4014.36188163701
 21
-175.0702878249176
 31
0.0
  0
LINE
  5
E5D2
330
D0C4
100
AcDbEntity
  8
COTAS
100
AcDbLine
 10
4014.36188163701
 20
-0.0809491639702419
 30
0.0
 11
4014.36188163701
 21
29.91905083602976
 31
0.0
  0
SOLID
  5
E5D3
330
D0C4
100
AcDbEntity
  8
COTAS
100
AcDbTrace
 10
4009.361881637011
 20
-145.0702878249176
 30
0.0
 11
4019.361881637011
 21
-145.0702878249176
 31
0.0
 12
4014.36188163701
 22
-115.0702878249176
 32
0.0
 13
4014.36188163701
 23
-115.0702878249176
 33
0.0
  0
SOLID
  5
E5D4
330
D0C4
100
AcDbEntity
  8
COTAS
100
AcDbTrace
 10
4009.361881637011
 20
-0.0809491639702408
 30
0.0
 11
4019.361881637011
 21
-0.080949163970243
 31
0.0
 12
4014.36188163701
 22
-30.08094916397024
 32
0.0
 13
4014.36188163701
 23
-30.08094916397024
 33
0.0
  0
MTEXT
  5
E5D5
330
D0C4
100
AcDbEntity
  8
COTAS
 62
     6
100
AcDbMText
 10
4014.36188163701
 20
-72.57561849444329
 30
0.0
 40
25.0
 41
0.0
 71
     5
 72
     1
  1
\A1;80
  7
ROMANS
 11
0.0000000000000001
 21
1.0
 31
0.0
 73
     1
 44
1.0
1001
ACAD
1000
MTEXTBEGIN
1070
    73
1070
     1
1070
    44
1040
1.0
1070
    74
1070
     0
1000
MTEXTEND
  0
POINT
  5
E5D6
330
D0C4
100
AcDbEntity
  8
Defpoints
 62
     0
100
AcDbPoint
 10
3931.958389721118
 20
-115.0702878249176
 30
0.0
  0
POINT
  5
E5D7
330
D0C4
100
AcDbEntity
  8
Defpoints
 62
     0
100
AcDbPoint
 10
3927.736721270509
 20
-30.08094916397022
 30
0.0
  0
POINT
  5
E5D8
330
D0C4
100
AcDbEntity
  8
Defpoints
 62
     0
100
AcDbPoint
 10
4014.36188163701
 20
-30.08094916397024
 30
0.0
  0
ENDBLK
  5
D0D0
330
D0C4
100
AcDbEntity
  8
0
100
AcDbBlockEnd
  0
BLOCK
  5
D0EA
330
D0DE
100
AcDbEntity
  8
0
100
AcDbBlockBegin
  2
*D19
 70
     1
 10
0.0
 20
0.0
 30
0.0
  3
*D19
  1

  0
LINE
  5
E5D9
330
D0DE
100
AcDbEntity
  8
COTAS
100
AcDbLine
 10
3599.118672670679
 20
-125.1035091001095
 30
0.0
 11
3599.118672670679
 21
-211.1747211092902
 31
0.0
  0
LINE
  5
E5DA
330
D0DE
100
AcDbEntity
  8
COTAS
100
AcDbLine
 10
3661.118668159582
 20
-125.0798579659108
 30
0.0
 11
3661.118668159582
 21
-211.1747211092902
 31
0.0
  0
LINE
  5
E5DB
330
D0DE
100
AcDbEntity
  8
COTAS
100
AcDbLine
 10
3569.11867267068
 20
-193.1747211092902
 30
0.0
 11
3539.118672670679
 21
-193.1747211092902
 31
0.0
  0
LINE
  5
E5DC
330
D0DE
100
AcDbEntity
  8
COTAS
100
AcDbLine
 10
3691.118668159582
 20
-193.1747211092902
 30
0.0
 11
3721.118668159582
 21
-193.1747211092902
 31
0.0
  0
LINE
  5
E5DD
330
D0DE
100
AcDbEntity
  8
COTAS
100
AcDbLine
 10
3599.118672670679
 20
-193.1747211092902
 30
0.0
 11
3661.118668159582
 21
-193.1747211092902
 31
0.0
  0
SOLID
  5
E5DE
330
D0DE
100
AcDbEntity
  8
COTAS
100
AcDbTrace
 10
3569.11867267068
 20
-188.1747211092902
 30
0.0
 11
3569.11867267068
 21
-198.1747211092902
 31
0.0
 12
3599.118672670679
 22
-193.1747211092902
 32
0.0
 13
3599.118672670679
 23
-193.1747211092902
 33
0.0
  0
SOLID
  5
E5DF
330
D0DE
100
AcDbEntity
  8
COTAS
100
AcDbTrace
 10
3691.118668159582
 20
-188.1747211092902
 30
0.0
 11
3691.118668159582
 21
-198.1747211092902
 31
0.0
 12
3661.118668159582
 22
-193.1747211092902
 32
0.0
 13
3661.118668159582
 23
-193.1747211092902
 33
0.0
  0
MTEXT
  5
E5E0
330
D0DE
100
AcDbEntity
  8
COTAS
 62
     6
100
AcDbMText
 10
3782.666287207201
 20
-193.1747211092902
 30
0.0
 40
25.0
 41
0.0
 71
     5
 72
     1
  1
\A1;%%C62
  7
ROMANS
 73
     1
 44
1.0
1001
ACAD
1000
MTEXTBEGIN
1070
    73
1070
     1
1070
    44
1040
1.0
1070
    74
1070
     0
1000
MTEXTEND
  0
POINT
  5
E5E1
330
D0DE
100
AcDbEntity
  8
Defpoints
 62
     0
100
AcDbPoint
 10
3599.118672670679
 20
-115.1035091001094
 30
0.0
  0
POINT
  5
E5E2
330
D0DE
100
AcDbEntity
  8
Defpoints
 62
     0
100
AcDbPoint
 10
3661.118668159582
 20
-115.0798579659108
 30
0.0
  0
POINT
  5
E5E3
330
D0DE
100
AcDbEntity
  8
Defpoints
 62
     0
100
AcDbPoint
 10
3661.118668159582
 20
-193.1747211092902
 30
0.0
  0
ENDBLK
  5
D0EB
330
D0DE
100
AcDbEntity
  8
0
100
AcDbBlockEnd
  0
BLOCK
  5
D2A4
330
D29A
100
AcDbEntity
  8
0
100
AcDbBlockBegin
  2
*D20
 70
     1
 10
0.0
 20
0.0
 30
0.0
  3
*D20
  1

  0
LINE
  5
E5E4
330
D29A
100
AcDbEntity
  8
COTAS
100
AcDbLine
 10
3630.445763136395
 20
-845.6303540422659
 30
0.0
 11
3630.445763136395
 21
-362.207566491008
 31
0.0
  0
LINE
  5
E5E5
330
D29A
100
AcDbEntity
  8
COTAS
100
AcDbLine
 10
3037.958389721132
 20
-459.729829528097
 30
0.0
 11
3037.958389721132
 21
-362.207566491008
 31
0.0
  0
LINE
  5
E5E6
330
D29A
100
AcDbEntity
  8
COTAS
100
AcDbLine
 10
3600.445763136395
 20
-382.2075664910081
 30
0.0
 11
3376.344933571621
 21
-382.2075664910081
 31
0.0
  0
LINE
  5
E5E7
330
D29A
100
AcDbEntity
  8
COTAS
100
AcDbLine
 10
3067.958389721133
 20
-382.2075664910081
 30
0.0
 11
3292.059219285906
 21
-382.2075664910081
 31
0.0
  0
SOLID
  5
E5E8
330
D29A
100
AcDbEntity
  8
COTAS
100
AcDbTrace
 10
3600.445763136395
 20
-377.207566491008
 30
0.0
 11
3600.445763136395
 21
-387.2075664910081
 31
0.0
 12
3630.445763136395
 22
-382.2075664910081
 32
0.0
 13
3630.445763136395
 23
-382.2075664910081
 33
0.0
  0
SOLID
  5
E5E9
330
D29A
100
AcDbEntity
  8
COTAS
100
AcDbTrace
 10
3067.958389721133
 20
-377.207566491008
 30
0.0
 11
3067.958389721133
 21
-387.2075664910081
 31
0.0
 12
3037.958389721132
 22
-382.2075664910081
 32
0.0
 13
3037.958389721132
 23
-382.2075664910081
 33
0.0
  0
MTEXT
  5
E5EA
330
D29A
100
AcDbEntity
  8
COTAS
 62
     6
100
AcDbMText
 10
3334.202076428764
 20
-382.2075664910081
 30
0.0
 40
25.0
 41
0.0
 71
     5
 72
     1
  1
\A1;590
  7
ROMANS
 73
     1
 44
1.0
1001
ACAD
1000
MTEXTBEGIN
1070
    73
1070
     1
1070
    44
1040
1.0
1070
    74
1070
     0
1000
MTEXTEND
  0
POINT
  5
E5EB
330
D29A
100
AcDbEntity
  8
Defpoints
 62
     0
100
AcDbPoint
 10
3630.445763136395
 20
-845.6303540422659
 30
0.0
  0
POINT
  5
E5EC
330
D29A
100
AcDbEntity
  8
Defpoints
 62
     0
100
AcDbPoint
 10
3037.958389721132
 20
-459.729829528097
 30
0.0
  0
POINT
  5
E5ED
330
D29A
100
AcDbEntity
  8
Defpoints
 62
     0
100
AcDbPoint
 10
3037.958389721132
 20
-382.2075664910081
 30
0.0
  0
ENDBLK
  5
D2A5
330
D29A
100
AcDbEntity
  8
0
100
AcDbBlockEnd
  0
BLOCK
  5
D2DC
330
D2D1
100
AcDbEntity
  8
0
100
AcDbBlockBegin
  2
*D21
 70
     1
 10
0.0
 20
0.0
 30
0.0
  3
*D21
  1

  0
LINE
  5
E5EE
330
D2D1
100
AcDbEntity
  8
COTAS
100
AcDbLine
 10
3440.858914235216
 20
-1035.217202943411
 30
0.0
 11
2957.43612668406
 21
-1035.217202943411
 31
0.0
  0
LINE
  5
E5EF
330
D2D1
100
AcDbEntity
  8
COTAS
100
AcDbLine
 10
3054.958389721149
 20
-442.7298295280825
 30
0.0
 11
2957.436126684061
 21
-442.7298295280825
 31
0.0
  0
LINE
  5
E5F0
330
D2D1
100
AcDbEntity
  8
COTAS
100
AcDbLine
 10
2977.436126684061
 20
-1005.217202943411
 30
0.0
 11
2977.436126684061
 21
-781.116373378604
 31
0.0
  0
LINE
  5
E5F1
330
D2D1
100
AcDbEntity
  8
COTAS
100
AcDbLine
 10
2977.436126684061
 20
-472.7298295280824
 30
0.0
 11
2977.436126684061
 21
-696.8306590928898
 31
0.0
  0
SOLID
  5
E5F2
330
D2D1
100
AcDbEntity
  8
COTAS
100
AcDbTrace
 10
2972.436126684061
 20
-1005.217202943411
 30
0.0
 11
2982.436126684061
 21
-1005.217202943411
 31
0.0
 12
2977.43612668406
 22
-1035.217202943411
 32
0.0
 13
2977.43612668406
 23
-1035.217202943411
 33
0.0
  0
SOLID
  5
E5F3
330
D2D1
100
AcDbEntity
  8
COTAS
100
AcDbTrace
 10
2972.436126684061
 20
-472.7298295280824
 30
0.0
 11
2982.436126684061
 21
-472.7298295280824
 31
0.0
 12
2977.436126684061
 22
-442.7298295280825
 32
0.0
 13
2977.436126684061
 23
-442.7298295280825
 33
0.0
  0
MTEXT
  5
E5F4
330
D2D1
100
AcDbEntity
  8
COTAS
 62
     6
100
AcDbMText
 10
2977.436126684061
 20
-738.9735162357465
 30
0.0
 40
25.0
 41
0.0
 71
     5
 72
     1
  1
\A1;590
  7
ROMANS
 11
0.0000000000000001
 21
1.0
 31
0.0
 73
     1
 44
1.0
1001
ACAD
1000
MTEXTBEGIN
1070
    73
1070
     1
1070
    44
1040
1.0
1070
    74
1070
     0
1000
MTEXTEND
  0
POINT
  5
E5F5
330
D2D1
100
AcDbEntity
  8
Defpoints
 62
     0
100
AcDbPoint
 10
3440.858914235216
 20
-1035.217202943411
 30
0.0
  0
POINT
  5
E5F6
330
D2D1
100
AcDbEntity
  8
Defpoints
 62
     0
100
AcDbPoint
 10
3054.958389721149
 20
-442.7298295280825
 30
0.0
  0
POINT
  5
E5F7
330
D2D1
100
AcDbEntity
  8
Defpoints
 62
     0
100
AcDbPoint
 10
2977.436126684061
 20
-442.7298295280825
 30
0.0
  0
ENDBLK
  5
D2DD
330
D2D1
100
AcDbEntity
  8
0
100
AcDbBlockEnd
  0
BLOCK
  5
DF4D
330
DF47
100
AcDbEntity
  8
0
100
AcDbBlockBegin
  2
*D22
 70
     1
 10
0.0
 20
0.0
 30
0.0
  3
*D22
  1

  0
LINE
  5
E90F
330
DF47
100
AcDbEntity
  8
COTAS
370
    -2
100
AcDbLine
 10
3432.958389721139
 20
-837.7298295280898
 30
0.0
 11
3665.461682245142
 21
-938.9356441594118
 31
0.0
  0
LINE
  5
E910
330
DF47
100
AcDbEntity
  8
COTAS
370
    -2
100
AcDbLine
 10
3868.486194881033
 20
-1027.309709611932
 30
0.0
 11
3764.574275499575
 21
-982.0781331609483
 31
0.0
  0
SOLID
  5
E911
330
DF47
100
AcDbEntity
  8
COTAS
100
AcDbTrace
 10
3870.481772566126
 20
-1022.725206399722
 30
0.0
 11
3866.49061719594
 21
-1031.894212824141
 31
0.0
 12
3895.99321415429
 22
-1039.28317572249
 32
0.0
 13
3895.99321415429
 23
-1039.28317572249
 33
0.0
  0
MTEXT
  5
E912
330
DF47
100
AcDbEntity
  8
COTAS
 62
     6
100
AcDbMText
 10
3715.017978872359
 20
-960.5068886601801
 30
0.0
 40
25.0
 41
0.0
 71
     5
 72
     1
  1
\A1;R500
  7
ROMANS
 11
0.9169006424418849
 21
-0.3991155370186161
 31
0.0
 73
     1
 44
1.0
1001
ACAD
1000
MTEXTBEGIN
1070
    73
1070
     1
1070
    44
1040
1.0
1070
    74
1070
     0
1000
MTEXTEND
  0
POINT
  5
E913
330
DF47
100
AcDbEntity
  8
Defpoints
 62
     0
100
AcDbPoint
 10
3895.99321415429
 20
-1039.28317572249
 30
0.0
  0
POINT
  5
E914
330
DF47
100
AcDbEntity
  8
Defpoints
 62
     0
100
AcDbPoint
 10
3432.958389721139
 20
-837.7298295280898
 30
0.0
  0
ENDBLK
  5
DF4E
330
DF47
100
AcDbEntity
  8
0
100
AcDbBlockEnd
  0
BLOCK
  5
EE1B
330
EE10
100
AcDbEntity
  8
0
100
AcDbBlockBegin
  2
*D23
 70
     1
 10
0.0
 20
0.0
 30
0.0
  3
*D23
  1

  0
LINE
  5
F572
330
EE10
100
AcDbEntity
  8
COTAS
370
    -2
100
AcDbLine
 10
3831.962044759019
 20
-6939.457136365614
 30
0.0
 11
3934.365536674911
 21
-6939.457136365614
 31
0.0
  0
LINE
  5
F573
330
EE10
100
AcDbEntity
  8
COTAS
370
    -2
100
AcDbLine
 10
3827.74037630841
 20
-6854.467797704668
 30
0.0
 11
3934.365536674911
 21
-6854.467797704668
 31
0.0
  0
LINE
  5
F574
330
EE10
100
AcDbEntity
  8
COTAS
370
    -2
100
AcDbLine
 10
3914.365536674911
 20
-6969.457136365614
 30
0.0
 11
3914.365536674911
 21
-6999.457136365615
 31
0.0
  0
LINE
  5
F575
330
EE10
100
AcDbEntity
  8
COTAS
370
    -2
100
AcDbLine
 10
3914.365536674911
 20
-6824.467797704667
 30
0.0
 11
3914.365536674911
 21
-6794.467797704666
 31
0.0
  0
SOLID
  5
F576
330
EE10
100
AcDbEntity
  8
COTAS
100
AcDbTrace
 10
3909.365536674911
 20
-6969.457136365614
 30
0.0
 11
3919.365536674911
 21
-6969.457136365614
 31
0.0
 12
3914.365536674911
 22
-6939.457136365614
 32
0.0
 13
3914.365536674911
 23
-6939.457136365614
 33
0.0
  0
SOLID
  5
F577
330
EE10
100
AcDbEntity
  8
COTAS
100
AcDbTrace
 10
3909.365536674911
 20
-6824.467797704667
 30
0.0
 11
3919.365536674911
 21
-6824.467797704667
 31
0.0
 12
3914.365536674911
 22
-6854.467797704668
 32
0.0
 13
3914.365536674911
 23
-6854.467797704668
 33
0.0
  0
MTEXT
  5
F578
330
EE10
100
AcDbEntity
  8
COTAS
 62
     6
100
AcDbMText
 10
3914.365536674912
 20
-6896.962467035139
 30
0.0
 40
25.0
 41
0.0
 71
     5
 72
     1
  1
\A1;80
  7
ROMANS
 11
0.0000000000000001
 21
1.0
 31
0.0
 73
     1
 44
1.0
1001
ACAD
1000
MTEXTBEGIN
1070
    73
1070
     1
1070
    44
1040
1.0
1070
    74
1070
     0
1000
MTEXTEND
  0
POINT
  5
F579
330
EE10
100
AcDbEntity
  8
Defpoints
 62
     0
100
AcDbPoint
 10
3831.962044759019
 20
-6939.457136365614
 30
0.0
  0
POINT
  5
F57A
330
EE10
100
AcDbEntity
  8
Defpoints
 62
     0
100
AcDbPoint
 10
3827.74037630841
 20
-6854.467797704668
 30
0.0
  0
POINT
  5
F57B
330
EE10
100
AcDbEntity
  8
Defpoints
 62
     0
100
AcDbPoint
 10
3914.365536674911
 20
-6854.467797704668
 30
0.0
  0
ENDBLK
  5
EE1C
330
EE10
100
AcDbEntity
  8
0
100
AcDbBlockEnd
  0
BLOCK
  5
EE29
330
EE1D
100
AcDbEntity
  8
0
100
AcDbBlockBegin
  2
*D24
 70
     1
 10
0.0
 20
0.0
 30
0.0
  3
*D24
  1

  0
LINE
  5
F57C
330
EE1D
100
AcDbEntity
  8
COTAS
370
    -2
100
AcDbLine
 10
3616.631299255417
 20
-6949.490357640806
 30
0.0
 11
3616.631299255417
 21
-7035.561569649987
 31
0.0
  0
LINE
  5
F57D
330
EE1D
100
AcDbEntity
  8
COTAS
370
    -2
100
AcDbLine
 10
3678.631294744319
 20
-6949.466706506608
 30
0.0
 11
3678.631294744319
 21
-7035.561569649987
 31
0.0
  0
LINE
  5
F57E
330
EE1D
100
AcDbEntity
  8
COTAS
370
    -2
100
AcDbLine
 10
3586.631299255417
 20
-7017.561569649986
 30
0.0
 11
3556.631299255417
 21
-7017.561569649986
 31
0.0
  0
LINE
  5
F57F
330
EE1D
100
AcDbEntity
  8
COTAS
370
    -2
100
AcDbLine
 10
3708.63129474432
 20
-7017.561569649986
 30
0.0
 11
3738.631294744319
 21
-7017.561569649986
 31
0.0
  0
LINE
  5
F580
330
EE1D
100
AcDbEntity
  8
COTAS
370
    -2
100
AcDbLine
 10
3616.631299255417
 20
-7017.561569649986
 30
0.0
 11
3678.631294744319
 21
-7017.561569649986
 31
0.0
  0
SOLID
  5
F581
330
EE1D
100
AcDbEntity
  8
COTAS
100
AcDbTrace
 10
3586.631299255417
 20
-7012.561569649986
 30
0.0
 11
3586.631299255417
 21
-7022.561569649986
 31
0.0
 12
3616.631299255417
 22
-7017.561569649986
 32
0.0
 13
3616.631299255417
 23
-7017.561569649986
 33
0.0
  0
SOLID
  5
F582
330
EE1D
100
AcDbEntity
  8
COTAS
100
AcDbTrace
 10
3708.63129474432
 20
-7012.561569649986
 30
0.0
 11
3708.63129474432
 21
-7022.561569649986
 31
0.0
 12
3678.631294744319
 22
-7017.561569649986
 32
0.0
 13
3678.631294744319
 23
-7017.561569649986
 33
0.0
  0
MTEXT
  5
F583
330
EE1D
100
AcDbEntity
  8
COTAS
 62
     6
100
AcDbMText
 10
3800.178913791939
 20
-7017.561569649986
 30
0.0
 40
25.0
 41
0.0
 71
     5
 72
     1
  1
\A1;%%C62
  7
ROMANS
 73
     1
 44
1.0
1001
ACAD
1000
MTEXTBEGIN
1070
    73
1070
     1
1070
    44
1040
1.0
1070
    74
1070
     0
1000
MTEXTEND
  0
POINT
  5
F584
330
EE1D
100
AcDbEntity
  8
Defpoints
 62
     0
100
AcDbPoint
 10
3616.631299255417
 20
-6939.490357640806
 30
0.0
  0
POINT
  5
F585
330
EE1D
100
AcDbEntity
  8
Defpoints
 62
     0
100
AcDbPoint
 10
3678.631294744319
 20
-6939.466706506607
 30
0.0
  0
POINT
  5
F586
330
EE1D
100
AcDbEntity
  8
Defpoints
 62
     0
100
AcDbPoint
 10
3678.631294744319
 20
-7017.561569649986
 30
0.0
  0
ENDBLK
  5
EE2A
330
EE1D
100
AcDbEntity
  8
0
100
AcDbBlockEnd
  0
BLOCK
  5
EF84
330
EF7D
100
AcDbEntity
  8
0
100
AcDbBlockBegin
  2
*D25
 70
     1
 10
0.0
 20
0.0
 30
0.0
  3
*D25
  1

  0
LINE
  5
F587
330
EF7D
100
AcDbEntity
  8
COTAS
370
    -2
100
AcDbLine
 10
3332.958389721137
 20
-7645.911551676082
 30
0.0
 11
3539.158496759108
 21
-7844.98421923834
 31
0.0
  0
LINE
  5
F588
330
EF7D
100
AcDbEntity
  8
COTAS
370
    -2
100
AcDbLine
 10
3674.688236674763
 20
-7975.829286423781
 30
0.0
 11
3616.925589750059
 21
-7920.063242584433
 31
0.0
  0
SOLID
  5
F589
330
EF7D
100
AcDbEntity
  8
COTAS
100
AcDbTrace
 10
3678.161054935265
 20
-7972.232130140058
 30
0.0
 11
3671.215418414262
 21
-7979.426442707505
 31
0.0
 12
3696.271174377098
 22
-7996.666195986795
 32
0.0
 13
3696.271174377098
 23
-7996.666195986795
 33
0.0
  0
MTEXT
  5
F58A
330
EF7D
100
AcDbEntity
  8
COTAS
 62
     6
100
AcDbMText
 10
3578.042043254582
 20
-7882.523730911384
 30
0.0
 40
25.0
 41
0.0
 71
     5
 72
     1
  1
\A1;R500
  7
ROMANS
 11
0.7194312567444717
 21
-0.6945636521004177
 31
0.0
 73
     1
 44
1.0
1001
ACAD
1000
MTEXTBEGIN
1070
    73
1070
     1
1070
    44
1040
1.0
1070
    74
1070
     0
1000
MTEXTEND
  0
POINT
  5
F58B
330
EF7D
100
AcDbEntity
  8
Defpoints
 62
     0
100
AcDbPoint
 10
3696.271174377098
 20
-7996.666195986795
 30
0.0
  0
POINT
  5
F58C
330
EF7D
100
AcDbEntity
  8
Defpoints
 62
     0
100
AcDbPoint
 10
3332.958389721137
 20
-7645.911551676082
 30
0.0
  0
ENDBLK
  5
EF85
330
EF7D
100
AcDbEntity
  8
0
100
AcDbBlockEnd
  0
BLOCK
  5
EFA3
330
EF99
100
AcDbEntity
  8
0
100
AcDbBlockBegin
  2
*D26
 70
     1
 10
0.0
 20
0.0
 30
0.0
  3
*D26
  1

  0
LINE
  5
FE2E
330
EF99
100
AcDbEntity
  8
COTAS
370
    -2
100
AcDbLine
 10
3037.958389721131
 20
-7367.911551676089
 30
0.0
 11
3037.958389721131
 21
-7127.669906440191
 31
0.0
  0
LINE
  5
FE2F
330
EF99
100
AcDbEntity
  8
COTAS
370
    -2
100
AcDbLine
 10
3837.958389721131
 20
-7367.911551676082
 30
0.0
 11
3837.958389721131
 21
-7127.669906440191
 31
0.0
  0
LINE
  5
FE30
330
EF99
100
AcDbEntity
  8
COTAS
370
    -2
100
AcDbLine
 10
3067.958389721132
 20
-7147.669906440191
 30
0.0
 11
3395.815532578274
 21
-7147.669906440191
 31
0.0
  0
LINE
  5
FE31
330
EF99
100
AcDbEntity
  8
COTAS
370
    -2
100
AcDbLine
 10
3807.958389721131
 20
-7147.669906440191
 30
0.0
 11
3480.101246863989
 21
-7147.669906440191
 31
0.0
  0
SOLID
  5
FE32
330
EF99
100
AcDbEntity
  8
COTAS
100
AcDbTrace
 10
3067.958389721132
 20
-7142.669906440191
 30
0.0
 11
3067.958389721132
 21
-7152.669906440191
 31
0.0
 12
3037.958389721131
 22
-7147.669906440191
 32
0.0
 13
3037.958389721131
 23
-7147.669906440191
 33
0.0
  0
SOLID
  5
FE33
330
EF99
100
AcDbEntity
  8
COTAS
100
AcDbTrace
 10
3807.958389721131
 20
-7142.669906440191
 30
0.0
 11
3807.958389721131
 21
-7152.669906440191
 31
0.0
 12
3837.958389721131
 22
-7147.669906440191
 32
0.0
 13
3837.958389721131
 23
-7147.669906440191
 33
0.0
  0
MTEXT
  5
FE34
330
EF99
100
AcDbEntity
  8
COTAS
 62
     6
100
AcDbMText
 10
3437.958389721131
 20
-7147.669906440191
 30
0.0
 40
25.0
 41
0.0
 71
     5
 72
     1
  1
\A1;800
  7
ROMANS
 73
     1
 44
1.0
1001
ACAD
1000
MTEXTBEGIN
1070
    73
1070
     1
1070
    44
1040
1.0
1070
    74
1070
     0
1000
MTEXTEND
  0
POINT
  5
FE35
330
EF99
100
AcDbEntity
  8
Defpoints
 62
     0
100
AcDbPoint
 10
3037.958389721131
 20
-7367.911551676089
 30
0.0
  0
POINT
  5
FE36
330
EF99
100
AcDbEntity
  8
Defpoints
 62
     0
100
AcDbPoint
 10
3837.958389721131
 20
-7367.911551676082
 30
0.0
  0
POINT
  5
FE37
330
EF99
100
AcDbEntity
  8
Defpoints
 62
     0
100
AcDbPoint
 10
3837.958389721131
 20
-7147.669906440191
 30
0.0
  0
ENDBLK
  5
EFA4
330
EF99
100
AcDbEntity
  8
0
100
AcDbBlockEnd
  0
BLOCK
  5
EFBB
330
EFB1
100
AcDbEntity
  8
0
100
AcDbBlockBegin
  2
*D27
 70
     1
 10
0.0
 20
0.0
 30
0.0
  3
*D27
  1

  0
LINE
  5
FE38
330
EFB1
100
AcDbEntity
  8
COTAS
370
    -2
100
AcDbLine
 10
3647.958389721131
 20
-7444.240358329963
 30
0.0
 11
3647.958389721131
 21
-7188.758138779042
 31
0.0
  0
LINE
  5
FE39
330
EFB1
100
AcDbEntity
  8
COTAS
370
    -2
100
AcDbLine
 10
3837.958389721131
 20
-7367.911551676082
 30
0.0
 11
3837.958389721131
 21
-7188.758138779042
 31
0.0
  0
LINE
  5
FE3A
330
EFB1
100
AcDbEntity
  8
COTAS
370
    -2
100
AcDbLine
 10
3677.958389721132
 20
-7208.758138779042
 30
0.0
 11
3702.601246863989
 21
-7208.758138779042
 31
0.0
  0
LINE
  5
FE3B
330
EFB1
100
AcDbEntity
  8
COTAS
370
    -2
100
AcDbLine
 10
3807.958389721131
 20
-7208.758138779042
 30
0.0
 11
3783.315532578274
 21
-7208.758138779042
 31
0.0
  0
SOLID
  5
FE3C
330
EFB1
100
AcDbEntity
  8
COTAS
100
AcDbTrace
 10
3677.958389721132
 20
-7203.758138779041
 30
0.0
 11
3677.958389721132
 21
-7213.758138779041
 31
0.0
 12
3647.958389721131
 22
-7208.758138779042
 32
0.0
 13
3647.958389721131
 23
-7208.758138779042
 33
0.0
  0
SOLID
  5
FE3D
330
EFB1
100
AcDbEntity
  8
COTAS
100
AcDbTrace
 10
3807.958389721131
 20
-7203.758138779041
 30
0.0
 11
3807.958389721131
 21
-7213.758138779041
 31
0.0
 12
3837.958389721131
 22
-7208.758138779042
 32
0.0
 13
3837.958389721131
 23
-7208.758138779042
 33
0.0
  0
MTEXT
  5
FE3E
330
EFB1
100
AcDbEntity
  8
COTAS
 62
     6
100
AcDbMText
 10
3742.958389721132
 20
-7208.758138779042
 30
0.0
 40
25.0
 41
0.0
 71
     5
 72
     1
  1
\A1;190
  7
ROMANS
 73
     1
 44
1.0
1001
ACAD
1000
MTEXTBEGIN
1070
    73
1070
     1
1070
    44
1040
1.0
1070
    74
1070
     0
1000
MTEXTEND
  0
POINT
  5
FE3F
330
EFB1
100
AcDbEntity
  8
Defpoints
 62
     0
100
AcDbPoint
 10
3647.958389721131
 20
-7444.240358329963
 30
0.0
  0
POINT
  5
FE40
330
EFB1
100
AcDbEntity
  8
Defpoints
 62
     0
100
AcDbPoint
 10
3837.958389721131
 20
-7367.911551676082
 30
0.0
  0
POINT
  5
FE41
330
EFB1
100
AcDbEntity
  8
Defpoints
 62
     0
100
AcDbPoint
 10
3837.958389721131
 20
-7208.758138779042
 30
0.0
  0
ENDBLK
  5
EFBC
330
EFB1
100
AcDbEntity
  8
0
100
AcDbBlockEnd
  0
BLOCK
  5
EFEA
330
EFDF
100
AcDbEntity
  8
0
100
AcDbBlockBegin
  2
*D28
 70
     1
 10
0.0
 20
0.0
 30
0.0
  3
*D28
  1

  0
LINE
  5
FE4E
330
EFDF
100
AcDbEntity
  8
COTAS
370
    -2
100
AcDbLine
 10
3744.629583067262
 20
-7540.911551676089
 30
0.0
 11
3988.045835368052
 21
-7540.911551676089
 31
0.0
  0
LINE
  5
FE4F
330
EFDF
100
AcDbEntity
  8
COTAS
370
    -2
100
AcDbLine
 10
3904.502112544594
 20
-7350.911551676087
 30
0.0
 11
3988.045835368052
 21
-7350.911551676087
 31
0.0
  0
LINE
  5
FE50
330
EFDF
100
AcDbEntity
  8
COTAS
370
    -2
100
AcDbLine
 10
3968.045835368052
 20
-7510.911551676089
 30
0.0
 11
3968.045835368052
 21
-7486.268694533231
 31
0.0
  0
LINE
  5
FE51
330
EFDF
100
AcDbEntity
  8
COTAS
370
    -2
100
AcDbLine
 10
3968.045835368052
 20
-7380.911551676087
 30
0.0
 11
3968.045835368052
 21
-7405.554408818945
 31
0.0
  0
SOLID
  5
FE52
330
EFDF
100
AcDbEntity
  8
COTAS
100
AcDbTrace
 10
3963.045835368052
 20
-7510.911551676089
 30
0.0
 11
3973.045835368052
 21
-7510.911551676089
 31
0.0
 12
3968.045835368052
 22
-7540.911551676089
 32
0.0
 13
3968.045835368052
 23
-7540.911551676089
 33
0.0
  0
SOLID
  5
FE53
330
EFDF
100
AcDbEntity
  8
COTAS
100
AcDbTrace
 10
3963.045835368052
 20
-7380.911551676087
 30
0.0
 11
3973.045835368052
 21
-7380.911551676087
 31
0.0
 12
3968.045835368052
 22
-7350.911551676087
 32
0.0
 13
3968.045835368052
 23
-7350.911551676087
 33
0.0
  0
MTEXT
  5
FE54
330
EFDF
100
AcDbEntity
  8
COTAS
 62
     6
100
AcDbMText
 10
3968.045835368053
 20
-7445.911551676087
 30
0.0
 40
25.0
 41
0.0
 71
     5
 72
     1
  1
\A1;190
  7
ROMANS
 11
0.0000000000000001
 21
1.0
 31
0.0
 73
     1
 44
1.0
1001
ACAD
1000
MTEXTBEGIN
1070
    73
1070
     1
1070
    44
1040
1.0
1070
    74
1070
     0
1000
MTEXTEND
  0
POINT
  5
FE55
330
EFDF
100
AcDbEntity
  8
Defpoints
 62
     0
100
AcDbPoint
 10
3744.629583067262
 20
-7540.911551676089
 30
0.0
  0
POINT
  5
FE56
330
EFDF
100
AcDbEntity
  8
Defpoints
 62
     0
100
AcDbPoint
 10
3904.502112544594
 20
-7350.911551676087
 30
0.0
  0
POINT
  5
FE57
330
EFDF
100
AcDbEntity
  8
Defpoints
 62
     0
100
AcDbPoint
 10
3968.045835368052
 20
-7350.911551676087
 30
0.0
  0
ENDBLK
  5
EFEB
330
EFDF
100
AcDbEntity
  8
0
100
AcDbBlockEnd
  0
BLOCK
  5
F004
330
EFF9
100
AcDbEntity
  8
0
100
AcDbBlockBegin
  2
*D29
 70
     1
 10
0.0
 20
0.0
 30
0.0
  3
*D29
  1

  0
LINE
  5
FE22
330
EFF9
100
AcDbEntity
  8
COTAS
370
    -2
100
AcDbLine
 10
3054.95838972115
 20
-7350.911551676073
 30
0.0
 11
2850.885923290844
 21
-7350.911551676073
 31
0.0
  0
LINE
  5
FE23
330
EFF9
100
AcDbEntity
  8
COTAS
370
    -2
100
AcDbLine
 10
3054.958389721003
 20
-8150.911551676072
 30
0.0
 11
2850.885923290844
 21
-8150.911551676072
 31
0.0
  0
LINE
  5
FE24
330
EFF9
100
AcDbEntity
  8
COTAS
370
    -2
100
AcDbLine
 10
2870.885923290844
 20
-7380.911551676073
 30
0.0
 11
2870.885923290844
 21
-7708.768694533216
 31
0.0
  0
LINE
  5
FE25
330
EFF9
100
AcDbEntity
  8
COTAS
370
    -2
100
AcDbLine
 10
2870.885923290844
 20
-8120.911551676073
 30
0.0
 11
2870.885923290844
 21
-7793.054408818931
 31
0.0
  0
SOLID
  5
FE26
330
EFF9
100
AcDbEntity
  8
COTAS
100
AcDbTrace
 10
2865.885923290844
 20
-7380.911551676073
 30
0.0
 11
2875.885923290844
 21
-7380.911551676073
 31
0.0
 12
2870.885923290844
 22
-7350.911551676073
 32
0.0
 13
2870.885923290844
 23
-7350.911551676073
 33
0.0
  0
SOLID
  5
FE27
330
EFF9
100
AcDbEntity
  8
COTAS
100
AcDbTrace
 10
2865.885923290844
 20
-8120.911551676073
 30
0.0
 11
2875.885923290844
 21
-8120.911551676073
 31
0.0
 12
2870.885923290844
 22
-8150.911551676072
 32
0.0
 13
2870.885923290844
 23
-8150.911551676072
 33
0.0
  0
MTEXT
  5
FE28
330
EFF9
100
AcDbEntity
  8
COTAS
 62
     6
100
AcDbMText
 10
2870.885923290845
 20
-7750.911551676073
 30
0.0
 40
25.0
 41
0.0
 71
     5
 72
     1
  1
\A1;800
  7
ROMANS
 11
0.0000000000000001
 21
1.0
 31
0.0
 73
     1
 44
1.0
1001
ACAD
1000
MTEXTBEGIN
1070
    73
1070
     1
1070
    44
1040
1.0
1070
    74
1070
     0
1000
MTEXTEND
  0
POINT
  5
FE29
330
EFF9
100
AcDbEntity
  8
Defpoints
 62
     0
100
AcDbPoint
 10
3054.95838972115
 20
-7350.911551676073
 30
0.0
  0
POINT
  5
FE2A
330
EFF9
100
AcDbEntity
  8
Defpoints
 62
     0
100
AcDbPoint
 10
3054.958389721003
 20
-8150.911551676072
 30
0.0
  0
POINT
  5
FE2B
330
EFF9
100
AcDbEntity
  8
Defpoints
 62
     0
100
AcDbPoint
 10
2870.885923290844
 20
-8150.911551676072
 30
0.0
  0
ENDBLK
  5
F005
330
EFF9
100
AcDbEntity
  8
0
100
AcDbBlockEnd
  0
BLOCK
  5
F0A0
330
F09F
100
AcDbEntity
  8
ASHADE
100
AcDbBlockBegin
  2
AVE_RENDER
 70
     0
 10
0.0
 20
0.0
 30
0.0
  3
AVE_RENDER
  1
AVE_RENDER
  0
ENDBLK
  5
F0A1
330
F09F
100
AcDbEntity
  8
0
100
AcDbBlockEnd
  0
BLOCK
  5
F0AE
330
F0AD
100
AcDbEntity
  8
ASHADE
100
AcDbBlockBegin
  2
AVE_GLOBAL
 70
     0
 10
0.0
 20
0.0
 30
0.0
  3
AVE_GLOBAL
  1
AVE_GLOBAL
  0
ENDBLK
  5
F0AF
330
F0AD
100
AcDbEntity
  8
0
100
AcDbBlockEnd
  0
BLOCK
  5
F33E
330
F333
100
AcDbEntity
  8
0
100
AcDbBlockBegin
  2
*D32
 70
     1
 10
0.0
 20
0.0
 30
0.0
  3
*D32
  1

  0
LINE
  5
FCFA
330
F333
100
AcDbEntity
  8
COTAS
370
    -2
100
AcDbLine
 10
1637.958389721114
 20
-5063.911551676081
 30
0.0
 11
1637.958389721114
 21
-5223.203838828538
 31
0.0
  0
LINE
  5
FCFB
330
F333
100
AcDbEntity
  8
COTAS
370
    -2
100
AcDbLine
 10
937.9583897211146
 20
-5063.911551676079
 30
0.0
 11
937.9583897211146
 21
-5223.203838828538
 31
0.0
  0
LINE
  5
FCFC
330
F333
100
AcDbEntity
  8
COTAS
370
    -2
100
AcDbLine
 10
1607.958389721115
 20
-5203.203838828539
 30
0.0
 11
1340.101246863971
 21
-5203.203838828539
 31
0.0
  0
LINE
  5
FCFD
330
F333
100
AcDbEntity
  8
COTAS
370
    -2
100
AcDbLine
 10
967.9583897211145
 20
-5203.203838828539
 30
0.0
 11
1235.815532578257
 21
-5203.203838828539
 31
0.0
  0
SOLID
  5
FCFE
330
F333
100
AcDbEntity
  8
COTAS
100
AcDbTrace
 10
1607.958389721115
 20
-5198.203838828538
 30
0.0
 11
1607.958389721115
 21
-5208.203838828538
 31
0.0
 12
1637.958389721114
 22
-5203.203838828539
 32
0.0
 13
1637.958389721114
 23
-5203.203838828539
 33
0.0
  0
SOLID
  5
FCFF
330
F333
100
AcDbEntity
  8
COTAS
100
AcDbTrace
 10
967.9583897211145
 20
-5198.203838828538
 30
0.0
 11
967.9583897211145
 21
-5208.203838828538
 31
0.0
 12
937.9583897211146
 22
-5203.203838828539
 32
0.0
 13
937.9583897211146
 23
-5203.203838828539
 33
0.0
  0
MTEXT
  5
FD00
330
F333
100
AcDbEntity
  8
COTAS
 62
     6
100
AcDbMText
 10
1287.958389721114
 20
-5203.203838828539
 30
0.0
 40
25.0
 41
0.0
 71
     5
 72
     1
  1
\A1;700
  7
ROMANS
 73
     1
 44
1.0
1001
ACAD
1000
MTEXTBEGIN
1070
    73
1070
     1
1070
    44
1040
1.0
1070
    74
1070
     0
1000
MTEXTEND
  0
POINT
  5
FD01
330
F333
100
AcDbEntity
  8
Defpoints
 62
     0
100
AcDbPoint
 10
1637.958389721114
 20
-5063.911551676081
 30
0.0
  0
POINT
  5
FD02
330
F333
100
AcDbEntity
  8
Defpoints
 62
     0
100
AcDbPoint
 10
937.9583897211146
 20
-5063.911551676079
 30
0.0
  0
POINT
  5
FD03
330
F333
100
AcDbEntity
  8
Defpoints
 62
     0
100
AcDbPoint
 10
937.9583897211146
 20
-5203.203838828539
 30
0.0
  0
ENDBLK
  5
F33F
330
F333
100
AcDbEntity
  8
0
100
AcDbBlockEnd
  0
BLOCK
  5
F34B
330
F340
100
AcDbEntity
  8
0
100
AcDbBlockBegin
  2
*D33
 70
     1
 10
0.0
 20
0.0
 30
0.0
  3
*D33
  1

  0
LINE
  5
FD04
330
F340
100
AcDbEntity
  8
COTAS
370
    -2
100
AcDbLine
 10
1620.958389721113
 20
-5080.911551676081
 30
0.0
 11
1780.250676873572
 21
-5080.911551676081
 31
0.0
  0
LINE
  5
FD05
330
F340
100
AcDbEntity
  8
COTAS
370
    -2
100
AcDbLine
 10
1720.958389721113
 20
-4380.911551676081
 30
0.0
 11
1780.250676873572
 21
-4380.911551676081
 31
0.0
  0
LINE
  5
FD06
330
F340
100
AcDbEntity
  8
COTAS
370
    -2
100
AcDbLine
 10
1760.250676873572
 20
-5050.91155167608
 30
0.0
 11
1760.250676873572
 21
-4783.054408818936
 31
0.0
  0
LINE
  5
FD07
330
F340
100
AcDbEntity
  8
COTAS
370
    -2
100
AcDbLine
 10
1760.250676873572
 20
-4410.91155167608
 30
0.0
 11
1760.250676873572
 21
-4678.768694533223
 31
0.0
  0
SOLID
  5
FD08
330
F340
100
AcDbEntity
  8
COTAS
100
AcDbTrace
 10
1755.250676873572
 20
-5050.91155167608
 30
0.0
 11
1765.250676873572
 21
-5050.91155167608
 31
0.0
 12
1760.250676873572
 22
-5080.911551676081
 32
0.0
 13
1760.250676873572
 23
-5080.911551676081
 33
0.0
  0
SOLID
  5
FD09
330
F340
100
AcDbEntity
  8
COTAS
100
AcDbTrace
 10
1755.250676873572
 20
-4410.91155167608
 30
0.0
 11
1765.250676873572
 21
-4410.91155167608
 31
0.0
 12
1760.250676873572
 22
-4380.911551676081
 32
0.0
 13
1760.250676873572
 23
-4380.911551676081
 33
0.0
  0
MTEXT
  5
FD0A
330
F340
100
AcDbEntity
  8
COTAS
 62
     6
100
AcDbMText
 10
1760.250676873573
 20
-4730.91155167608
 30
0.0
 40
25.0
 41
0.0
 71
     5
 72
     1
  1
\A1;700
  7
ROMANS
 11
0.0000000000000001
 21
1.0
 31
0.0
 73
     1
 44
1.0
1001
ACAD
1000
MTEXTBEGIN
1070
    73
1070
     1
1070
    44
1040
1.0
1070
    74
1070
     0
1000
MTEXTEND
  0
POINT
  5
FD0B
330
F340
100
AcDbEntity
  8
Defpoints
 62
     0
100
AcDbPoint
 10
1620.958389721113
 20
-5080.911551676081
 30
0.0
  0
POINT
  5
FD0C
330
F340
100
AcDbEntity
  8
Defpoints
 62
     0
100
AcDbPoint
 10
1720.958389721113
 20
-4380.911551676081
 30
0.0
  0
POINT
  5
FD0D
330
F340
100
AcDbEntity
  8
Defpoints
 62
     0
100
AcDbPoint
 10
1760.250676873572
 20
-4380.911551676081
 30
0.0
  0
ENDBLK
  5
F34C
330
F340
100
AcDbEntity
  8
0
100
AcDbBlockEnd
  0
BLOCK
  5
F358
330
F34D
100
AcDbEntity
  8
0
100
AcDbBlockBegin
  2
*D34
 70
     1
 10
0.0
 20
0.0
 30
0.0
  3
*D34
  1

  0
LINE
  5
F43A
330
F34D
100
AcDbEntity
  8
COTAS
370
    -2
100
AcDbLine
 10
1631.958389721116
 20
-3969.457136365615
 30
0.0
 11
1734.361881637009
 21
-3969.457136365615
 31
0.0
  0
LINE
  5
F43B
330
F34D
100
AcDbEntity
  8
COTAS
370
    -2
100
AcDbLine
 10
1627.736721270508
 20
-3884.467797704667
 30
0.0
 11
1734.361881637009
 21
-3884.467797704667
 31
0.0
  0
LINE
  5
F43C
330
F34D
100
AcDbEntity
  8
COTAS
370
    -2
100
AcDbLine
 10
1714.361881637009
 20
-3999.457136365614
 30
0.0
 11
1714.361881637009
 21
-4029.457136365613
 31
0.0
  0
LINE
  5
F43D
330
F34D
100
AcDbEntity
  8
COTAS
370
    -2
100
AcDbLine
 10
1714.361881637009
 20
-3854.467797704667
 30
0.0
 11
1714.361881637009
 21
-3824.467797704667
 31
0.0
  0
SOLID
  5
F43E
330
F34D
100
AcDbEntity
  8
COTAS
100
AcDbTrace
 10
1709.361881637009
 20
-3999.457136365614
 30
0.0
 11
1719.361881637009
 21
-3999.457136365614
 31
0.0
 12
1714.361881637009
 22
-3969.457136365615
 32
0.0
 13
1714.361881637009
 23
-3969.457136365615
 33
0.0
  0
SOLID
  5
F43F
330
F34D
100
AcDbEntity
  8
COTAS
100
AcDbTrace
 10
1709.361881637009
 20
-3854.467797704667
 30
0.0
 11
1719.361881637009
 21
-3854.467797704667
 31
0.0
 12
1714.361881637009
 22
-3884.467797704667
 32
0.0
 13
1714.361881637009
 23
-3884.467797704667
 33
0.0
  0
MTEXT
  5
F440
330
F34D
100
AcDbEntity
  8
COTAS
 62
     6
100
AcDbMText
 10
1714.36188163701
 20
-3926.96246703514
 30
0.0
 40
25.0
 41
0.0
 71
     5
 72
     1
  1
\A1;80
  7
ROMANS
 11
0.0000000000000001
 21
1.0
 31
0.0
 73
     1
 44
1.0
1001
ACAD
1000
MTEXTBEGIN
1070
    73
1070
     1
1070
    44
1040
1.0
1070
    74
1070
     0
1000
MTEXTEND
  0
POINT
  5
F441
330
F34D
100
AcDbEntity
  8
Defpoints
 62
     0
100
AcDbPoint
 10
1631.958389721116
 20
-3969.457136365615
 30
0.0
  0
POINT
  5
F442
330
F34D
100
AcDbEntity
  8
Defpoints
 62
     0
100
AcDbPoint
 10
1627.736721270508
 20
-3884.467797704667
 30
0.0
  0
POINT
  5
F443
330
F34D
100
AcDbEntity
  8
Defpoints
 62
     0
100
AcDbPoint
 10
1714.361881637009
 20
-3884.467797704667
 30
0.0
  0
ENDBLK
  5
F359
330
F34D
100
AcDbEntity
  8
0
100
AcDbBlockEnd
  0
BLOCK
  5
F45C
330
F450
100
AcDbEntity
  8
0
100
AcDbBlockBegin
  2
*D35
 70
     1
 10
0.0
 20
0.0
 30
0.0
  3
*D35
  1

  0
LINE
  5
FD2D
330
F450
100
AcDbEntity
  8
COTAS
370
    -2
100
AcDbLine
 10
1479.263924160278
 20
-3979.480080057534
 30
0.0
 11
1479.263924160278
 21
-4065.551292066714
 31
0.0
  0
LINE
  5
FD2E
330
F450
100
AcDbEntity
  8
COTAS
370
    -2
100
AcDbLine
 10
1417.263928671375
 20
-3979.456428923336
 30
0.0
 11
1417.263928671375
 21
-4065.551292066714
 31
0.0
  0
LINE
  5
FD2F
330
F450
100
AcDbEntity
  8
COTAS
370
    -2
100
AcDbLine
 10
1387.263928671375
 20
-4047.551292066715
 30
0.0
 11
1357.263928671376
 21
-4047.551292066715
 31
0.0
  0
LINE
  5
FD30
330
F450
100
AcDbEntity
  8
COTAS
370
    -2
100
AcDbLine
 10
1509.263924160278
 20
-4047.551292066715
 30
0.0
 11
1539.263924160278
 21
-4047.551292066715
 31
0.0
  0
LINE
  5
FD31
330
F450
100
AcDbEntity
  8
COTAS
370
    -2
100
AcDbLine
 10
1417.263928671375
 20
-4047.551292066715
 30
0.0
 11
1479.263924160278
 21
-4047.551292066715
 31
0.0
  0
SOLID
  5
FD32
330
F450
100
AcDbEntity
  8
COTAS
100
AcDbTrace
 10
1387.263928671375
 20
-4042.551292066715
 30
0.0
 11
1387.263928671375
 21
-4052.551292066715
 31
0.0
 12
1417.263928671375
 22
-4047.551292066715
 32
0.0
 13
1417.263928671375
 23
-4047.551292066715
 33
0.0
  0
SOLID
  5
FD33
330
F450
100
AcDbEntity
  8
COTAS
100
AcDbTrace
 10
1509.263924160278
 20
-4042.551292066715
 30
0.0
 11
1509.263924160278
 21
-4052.551292066715
 31
0.0
 12
1479.263924160278
 22
-4047.551292066715
 32
0.0
 13
1479.263924160278
 23
-4047.551292066715
 33
0.0
  0
MTEXT
  5
FD34
330
F450
100
AcDbEntity
  8
COTAS
 62
     6
100
AcDbMText
 10
1600.811543207897
 20
-4047.551292066715
 30
0.0
 40
25.0
 41
0.0
 71
     5
 72
     1
  1
\A1;%%C62
  7
ROMANS
 73
     1
 44
1.0
1001
ACAD
1000
MTEXTBEGIN
1070
    73
1070
     1
1070
    44
1040
1.0
1070
    74
1070
     0
1000
MTEXTEND
  0
POINT
  5
FD35
330
F450
100
AcDbEntity
  8
Defpoints
 62
     0
100
AcDbPoint
 10
1479.263924160278
 20
-3969.480080057535
 30
0.0
  0
POINT
  5
FD36
330
F450
100
AcDbEntity
  8
Defpoints
 62
     0
100
AcDbPoint
 10
1417.263928671375
 20
-3969.456428923336
 30
0.0
  0
POINT
  5
FD37
330
F450
100
AcDbEntity
  8
Defpoints
 62
     0
100
AcDbPoint
 10
1417.263928671375
 20
-4047.551292066715
 30
0.0
  0
ENDBLK
  5
F45D
330
F450
100
AcDbEntity
  8
0
100
AcDbBlockEnd
  0
BLOCK
  5
F474
330
F46A
100
AcDbEntity
  8
0
100
AcDbBlockBegin
  2
*D36
 70
     1
 10
0.0
 20
0.0
 30
0.0
  3
*D36
  1

  0
LINE
  5
FD0E
330
F46A
100
AcDbEntity
  8
COTAS
370
    -2
100
AcDbLine
 10
1637.958389721114
 20
-5063.911551676081
 30
0.0
 11
1637.958389721114
 21
-5167.246058125611
 31
0.0
  0
LINE
  5
FD0F
330
F46A
100
AcDbEntity
  8
COTAS
370
    -2
100
AcDbLine
 10
1447.958389721117
 20
-5008.63522134173
 30
0.0
 11
1447.958389721117
 21
-5167.246058125611
 31
0.0
  0
LINE
  5
FD10
330
F46A
100
AcDbEntity
  8
COTAS
370
    -2
100
AcDbLine
 10
1607.958389721115
 20
-5147.24605812561
 30
0.0
 11
1591.088268057375
 21
-5147.24605812561
 31
0.0
  0
LINE
  5
FD11
330
F46A
100
AcDbEntity
  8
COTAS
370
    -2
100
AcDbLine
 10
1477.958389721116
 20
-5147.24605812561
 30
0.0
 11
1490.373982343089
 21
-5147.24605812561
 31
0.0
  0
SOLID
  5
FD12
330
F46A
100
AcDbEntity
  8
COTAS
100
AcDbTrace
 10
1607.958389721115
 20
-5142.246058125611
 30
0.0
 11
1607.958389721115
 21
-5152.246058125611
 31
0.0
 12
1637.958389721114
 22
-5147.24605812561
 32
0.0
 13
1637.958389721114
 23
-5147.24605812561
 33
0.0
  0
SOLID
  5
FD13
330
F46A
100
AcDbEntity
  8
COTAS
100
AcDbTrace
 10
1477.958389721116
 20
-5142.246058125611
 30
0.0
 11
1477.958389721116
 21
-5152.246058125611
 31
0.0
 12
1447.958389721117
 22
-5147.24605812561
 32
0.0
 13
1447.958389721117
 23
-5147.24605812561
 33
0.0
  0
MTEXT
  5
FD14
330
F46A
100
AcDbEntity
  8
COTAS
 62
     6
100
AcDbMText
 10
1540.731125200232
 20
-5147.24605812561
 30
0.0
 40
25.0
 41
0.0
 71
     5
 72
     1
  1
\A1;190
  7
ROMANS
 73
     1
 44
1.0
1001
ACAD
1000
MTEXTBEGIN
1070
    73
1070
     1
1070
    44
1040
1.0
1070
    74
1070
     0
1000
MTEXTEND
  0
POINT
  5
FD15
330
F46A
100
AcDbEntity
  8
Defpoints
 62
     0
100
AcDbPoint
 10
1637.958389721114
 20
-5063.911551676081
 30
0.0
  0
POINT
  5
FD16
330
F46A
100
AcDbEntity
  8
Defpoints
 62
     0
100
AcDbPoint
 10
1447.958389721117
 20
-5008.63522134173
 30
0.0
  0
POINT
  5
FD17
330
F46A
100
AcDbEntity
  8
Defpoints
 62
     0
100
AcDbPoint
 10
1447.958389721117
 20
-5147.24605812561
 30
0.0
  0
ENDBLK
  5
F475
330
F46A
100
AcDbEntity
  8
0
100
AcDbBlockEnd
  0
BLOCK
  5
F4A4
330
F499
100
AcDbEntity
  8
0
100
AcDbBlockBegin
  2
*D37
 70
     1
 10
0.0
 20
0.0
 30
0.0
  3
*D37
  1

  0
LINE
  5
FD18
330
F499
100
AcDbEntity
  8
COTAS
370
    -2
100
AcDbLine
 10
1620.958389721113
 20
-5080.911551676082
 30
0.0
 11
1724.292896170642
 21
-5080.911551676082
 31
0.0
  0
LINE
  5
FD19
330
F499
100
AcDbEntity
  8
COTAS
370
    -2
100
AcDbLine
 10
1565.682059386763
 20
-4890.911551676085
 30
0.0
 11
1724.292896170642
 21
-4890.911551676085
 31
0.0
  0
LINE
  5
FD1A
330
F499
100
AcDbEntity
  8
COTAS
370
    -2
100
AcDbLine
 10
1704.292896170642
 20
-5050.911551676082
 30
0.0
 11
1704.292896170642
 21
-5034.041430012343
 31
0.0
  0
LINE
  5
FD1B
330
F499
100
AcDbEntity
  8
COTAS
370
    -2
100
AcDbLine
 10
1704.292896170642
 20
-4920.911551676084
 30
0.0
 11
1704.292896170642
 21
-4933.327144298057
 31
0.0
  0
SOLID
  5
FD1C
330
F499
100
AcDbEntity
  8
COTAS
100
AcDbTrace
 10
1699.292896170642
 20
-5050.911551676082
 30
0.0
 11
1709.292896170643
 21
-5050.911551676082
 31
0.0
 12
1704.292896170642
 22
-5080.911551676082
 32
0.0
 13
1704.292896170642
 23
-5080.911551676082
 33
0.0
  0
SOLID
  5
FD1D
330
F499
100
AcDbEntity
  8
COTAS
100
AcDbTrace
 10
1699.292896170642
 20
-4920.911551676084
 30
0.0
 11
1709.292896170643
 21
-4920.911551676084
 31
0.0
 12
1704.292896170642
 22
-4890.911551676085
 32
0.0
 13
1704.292896170642
 23
-4890.911551676085
 33
0.0
  0
MTEXT
  5
FD1E
330
F499
100
AcDbEntity
  8
COTAS
 62
     6
100
AcDbMText
 10
1704.292896170643
 20
-4983.6842871552
 30
0.0
 40
25.0
 41
0.0
 71
     5
 72
     1
  1
\A1;190
  7
ROMANS
 11
0.0000000000000001
 21
1.0
 31
0.0
 73
     1
 44
1.0
1001
ACAD
1000
MTEXTBEGIN
1070
    73
1070
     1
1070
    44
1040
1.0
1070
    74
1070
     0
1000
MTEXTEND
  0
POINT
  5
FD1F
330
F499
100
AcDbEntity
  8
Defpoints
 62
     0
100
AcDbPoint
 10
1620.958389721113
 20
-5080.911551676082
 30
0.0
  0
POINT
  5
FD20
330
F499
100
AcDbEntity
  8
Defpoints
 62
     0
100
AcDbPoint
 10
1565.682059386763
 20
-4890.911551676085
 30
0.0
  0
POINT
  5
FD21
330
F499
100
AcDbEntity
  8
Defpoints
 62
     0
100
AcDbPoint
 10
1704.292896170642
 20
-4890.911551676085
 30
0.0
  0
ENDBLK
  5
F4A5
330
F499
100
AcDbEntity
  8
0
100
AcDbBlockEnd
  0
BLOCK
  5
F6D7
330
F6CC
100
AcDbEntity
  8
0
100
AcDbBlockBegin
  2
*D38
 70
     1
 10
0.0
 20
0.0
 30
0.0
  3
*D38
  1

  0
LINE
  5
F750
330
F6CC
100
AcDbEntity
  8
COTAS
370
    -2
100
AcDbLine
 10
3831.958389721117
 20
-3969.457136365615
 30
0.0
 11
3934.361881637009
 21
-3969.457136365615
 31
0.0
  0
LINE
  5
F751
330
F6CC
100
AcDbEntity
  8
COTAS
370
    -2
100
AcDbLine
 10
3827.736721270508
 20
-3884.467797704667
 30
0.0
 11
3934.361881637009
 21
-3884.467797704667
 31
0.0
  0
LINE
  5
F752
330
F6CC
100
AcDbEntity
  8
COTAS
370
    -2
100
AcDbLine
 10
3914.36188163701
 20
-3999.457136365614
 30
0.0
 11
3914.36188163701
 21
-4029.457136365613
 31
0.0
  0
LINE
  5
F753
330
F6CC
100
AcDbEntity
  8
COTAS
370
    -2
100
AcDbLine
 10
3914.36188163701
 20
-3854.467797704667
 30
0.0
 11
3914.36188163701
 21
-3824.467797704667
 31
0.0
  0
SOLID
  5
F754
330
F6CC
100
AcDbEntity
  8
COTAS
100
AcDbTrace
 10
3909.36188163701
 20
-3999.457136365614
 30
0.0
 11
3919.36188163701
 21
-3999.457136365614
 31
0.0
 12
3914.36188163701
 22
-3969.457136365615
 32
0.0
 13
3914.36188163701
 23
-3969.457136365615
 33
0.0
  0
SOLID
  5
F755
330
F6CC
100
AcDbEntity
  8
COTAS
100
AcDbTrace
 10
3909.36188163701
 20
-3854.467797704667
 30
0.0
 11
3919.36188163701
 21
-3854.467797704667
 31
0.0
 12
3914.36188163701
 22
-3884.467797704667
 32
0.0
 13
3914.36188163701
 23
-3884.467797704667
 33
0.0
  0
MTEXT
  5
F756
330
F6CC
100
AcDbEntity
  8
COTAS
 62
     6
100
AcDbMText
 10
3914.36188163701
 20
-3926.96246703514
 30
0.0
 40
25.0
 41
0.0
 71
     5
 72
     1
  1
\A1;80
  7
ROMANS
 11
0.0000000000000001
 21
1.0
 31
0.0
 73
     1
 44
1.0
1001
ACAD
1000
MTEXTBEGIN
1070
    73
1070
     1
1070
    44
1040
1.0
1070
    74
1070
     0
1000
MTEXTEND
  0
POINT
  5
F757
330
F6CC
100
AcDbEntity
  8
Defpoints
 62
     0
100
AcDbPoint
 10
3831.958389721117
 20
-3969.457136365615
 30
0.0
  0
POINT
  5
F758
330
F6CC
100
AcDbEntity
  8
Defpoints
 62
     0
100
AcDbPoint
 10
3827.736721270508
 20
-3884.467797704667
 30
0.0
  0
POINT
  5
F759
330
F6CC
100
AcDbEntity
  8
Defpoints
 62
     0
100
AcDbPoint
 10
3914.36188163701
 20
-3884.467797704667
 30
0.0
  0
ENDBLK
  5
F6D8
330
F6CC
100
AcDbEntity
  8
0
100
AcDbBlockEnd
  0
BLOCK
  5
F6E5
330
F6D9
100
AcDbEntity
  8
0
100
AcDbBlockBegin
  2
*D39
 70
     1
 10
0.0
 20
0.0
 30
0.0
  3
*D39
  1

  0
LINE
  5
FD44
330
F6D9
100
AcDbEntity
  8
COTAS
370
    -2
100
AcDbLine
 10
3679.263924160278
 20
-3979.480080057534
 30
0.0
 11
3679.263924160278
 21
-4065.551292066714
 31
0.0
  0
LINE
  5
FD45
330
F6D9
100
AcDbEntity
  8
COTAS
370
    -2
100
AcDbLine
 10
3617.263928671375
 20
-3979.456428923336
 30
0.0
 11
3617.263928671375
 21
-4065.551292066714
 31
0.0
  0
LINE
  5
FD46
330
F6D9
100
AcDbEntity
  8
COTAS
370
    -2
100
AcDbLine
 10
3587.263928671375
 20
-4047.551292066715
 30
0.0
 11
3557.263928671375
 21
-4047.551292066715
 31
0.0
  0
LINE
  5
FD47
330
F6D9
100
AcDbEntity
  8
COTAS
370
    -2
100
AcDbLine
 10
3709.263924160278
 20
-4047.551292066715
 30
0.0
 11
3739.263924160277
 21
-4047.551292066715
 31
0.0
  0
LINE
  5
FD48
330
F6D9
100
AcDbEntity
  8
COTAS
370
    -2
100
AcDbLine
 10
3617.263928671375
 20
-4047.551292066715
 30
0.0
 11
3679.263924160278
 21
-4047.551292066715
 31
0.0
  0
SOLID
  5
FD49
330
F6D9
100
AcDbEntity
  8
COTAS
100
AcDbTrace
 10
3587.263928671375
 20
-4042.551292066715
 30
0.0
 11
3587.263928671375
 21
-4052.551292066715
 31
0.0
 12
3617.263928671375
 22
-4047.551292066715
 32
0.0
 13
3617.263928671375
 23
-4047.551292066715
 33
0.0
  0
SOLID
  5
FD4A
330
F6D9
100
AcDbEntity
  8
COTAS
100
AcDbTrace
 10
3709.263924160278
 20
-4042.551292066715
 30
0.0
 11
3709.263924160278
 21
-4052.551292066715
 31
0.0
 12
3679.263924160278
 22
-4047.551292066715
 32
0.0
 13
3679.263924160278
 23
-4047.551292066715
 33
0.0
  0
MTEXT
  5
FD4B
330
F6D9
100
AcDbEntity
  8
COTAS
 62
     6
100
AcDbMText
 10
3800.811543207897
 20
-4047.551292066715
 30
0.0
 40
25.0
 41
0.0
 71
     5
 72
     1
  1
\A1;%%C62
  7
ROMANS
 73
     1
 44
1.0
1001
ACAD
1000
MTEXTBEGIN
1070
    73
1070
     1
1070
    44
1040
1.0
1070
    74
1070
     0
1000
MTEXTEND
  0
POINT
  5
FD4C
330
F6D9
100
AcDbEntity
  8
Defpoints
 62
     0
100
AcDbPoint
 10
3679.263924160278
 20
-3969.480080057535
 30
0.0
  0
POINT
  5
FD4D
330
F6D9
100
AcDbEntity
  8
Defpoints
 62
     0
100
AcDbPoint
 10
3617.263928671375
 20
-3969.456428923336
 30
0.0
  0
POINT
  5
FD4E
330
F6D9
100
AcDbEntity
  8
Defpoints
 62
     0
100
AcDbPoint
 10
3617.263928671375
 20
-4047.551292066715
 30
0.0
  0
ENDBLK
  5
F6E6
330
F6D9
100
AcDbEntity
  8
0
100
AcDbBlockEnd
  0
BLOCK
  5
F6F2
330
F6E7
100
AcDbEntity
  8
0
100
AcDbBlockBegin
  2
*D40
 70
     1
 10
0.0
 20
0.0
 30
0.0
  3
*D40
  1

  0
LINE
  5
FD6D
330
F6E7
100
AcDbEntity
  8
COTAS
370
    -2
100
AcDbLine
 10
3820.958389721113
 20
-5180.911551676082
 30
0.0
 11
3924.292896170642
 21
-5180.911551676082
 31
0.0
  0
LINE
  5
FD6E
330
F6E7
100
AcDbEntity
  8
COTAS
370
    -2
100
AcDbLine
 10
3765.682059386763
 20
-4990.911551676084
 30
0.0
 11
3924.292896170642
 21
-4990.911551676084
 31
0.0
  0
LINE
  5
FD6F
330
F6E7
100
AcDbEntity
  8
COTAS
370
    -2
100
AcDbLine
 10
3904.292896170641
 20
-5150.911551676082
 30
0.0
 11
3904.292896170641
 21
-5134.041430012344
 31
0.0
  0
LINE
  5
FD70
330
F6E7
100
AcDbEntity
  8
COTAS
370
    -2
100
AcDbLine
 10
3904.292896170642
 20
-5020.911551676085
 30
0.0
 11
3904.292896170642
 21
-5033.327144298057
 31
0.0
  0
SOLID
  5
FD71
330
F6E7
100
AcDbEntity
  8
COTAS
100
AcDbTrace
 10
3899.292896170642
 20
-5150.911551676082
 30
0.0
 11
3909.292896170642
 21
-5150.911551676082
 31
0.0
 12
3904.292896170641
 22
-5180.911551676082
 32
0.0
 13
3904.292896170641
 23
-5180.911551676082
 33
0.0
  0
SOLID
  5
FD72
330
F6E7
100
AcDbEntity
  8
COTAS
100
AcDbTrace
 10
3899.292896170642
 20
-5020.911551676085
 30
0.0
 11
3909.292896170642
 21
-5020.911551676085
 31
0.0
 12
3904.292896170642
 22
-4990.911551676084
 32
0.0
 13
3904.292896170642
 23
-4990.911551676084
 33
0.0
  0
MTEXT
  5
FD73
330
F6E7
100
AcDbEntity
  8
COTAS
 62
     6
100
AcDbMText
 10
3904.292896170642
 20
-5083.6842871552
 30
0.0
 40
25.0
 41
0.0
 71
     5
 72
     1
  1
\A1;190
  7
ROMANS
 11
0.0000000000000001
 21
1.0
 31
0.0
 73
     1
 44
1.0
1001
ACAD
1000
MTEXTBEGIN
1070
    73
1070
     1
1070
    44
1040
1.0
1070
    74
1070
     0
1000
MTEXTEND
  0
POINT
  5
FD74
330
F6E7
100
AcDbEntity
  8
Defpoints
 62
     0
100
AcDbPoint
 10
3820.958389721113
 20
-5180.911551676082
 30
0.0
  0
POINT
  5
FD75
330
F6E7
100
AcDbEntity
  8
Defpoints
 62
     0
100
AcDbPoint
 10
3765.682059386763
 20
-4990.911551676084
 30
0.0
  0
POINT
  5
FD76
330
F6E7
100
AcDbEntity
  8
Defpoints
 62
     0
100
AcDbPoint
 10
3904.292896170642
 20
-4990.911551676084
 30
0.0
  0
ENDBLK
  5
F6F3
330
F6E7
100
AcDbEntity
  8
0
100
AcDbBlockEnd
  0
BLOCK
  5
F6FF
330
F6F4
100
AcDbEntity
  8
0
100
AcDbBlockBegin
  2
*D41
 70
     1
 10
0.0
 20
0.0
 30
0.0
  3
*D41
  1

  0
LINE
  5
FD4F
330
F6F4
100
AcDbEntity
  8
COTAS
370
    -2
100
AcDbLine
 10
3837.958389721114
 20
-5163.911551676081
 30
0.0
 11
3837.958389721114
 21
-5323.203838828537
 31
0.0
  0
LINE
  5
FD50
330
F6F4
100
AcDbEntity
  8
COTAS
370
    -2
100
AcDbLine
 10
3037.958389721114
 20
-5163.911551676079
 30
0.0
 11
3037.958389721114
 21
-5323.203838828537
 31
0.0
  0
LINE
  5
FD51
330
F6F4
100
AcDbEntity
  8
COTAS
370
    -2
100
AcDbLine
 10
3807.958389721114
 20
-5303.203838828537
 30
0.0
 11
3490.101246863972
 21
-5303.203838828537
 31
0.0
  0
LINE
  5
FD52
330
F6F4
100
AcDbEntity
  8
COTAS
370
    -2
100
AcDbLine
 10
3067.958389721114
 20
-5303.203838828537
 30
0.0
 11
3385.815532578256
 21
-5303.203838828537
 31
0.0
  0
SOLID
  5
FD53
330
F6F4
100
AcDbEntity
  8
COTAS
100
AcDbTrace
 10
3807.958389721114
 20
-5298.203838828538
 30
0.0
 11
3807.958389721114
 21
-5308.203838828537
 31
0.0
 12
3837.958389721114
 22
-5303.203838828537
 32
0.0
 13
3837.958389721114
 23
-5303.203838828537
 33
0.0
  0
SOLID
  5
FD54
330
F6F4
100
AcDbEntity
  8
COTAS
100
AcDbTrace
 10
3067.958389721114
 20
-5298.203838828538
 30
0.0
 11
3067.958389721114
 21
-5308.203838828537
 31
0.0
 12
3037.958389721114
 22
-5303.203838828537
 32
0.0
 13
3037.958389721114
 23
-5303.203838828537
 33
0.0
  0
MTEXT
  5
FD55
330
F6F4
100
AcDbEntity
  8
COTAS
 62
     6
100
AcDbMText
 10
3437.958389721114
 20
-5303.203838828537
 30
0.0
 40
25.0
 41
0.0
 71
     5
 72
     1
  1
\A1;800
  7
ROMANS
 73
     1
 44
1.0
1001
ACAD
1000
MTEXTBEGIN
1070
    73
1070
     1
1070
    44
1040
1.0
1070
    74
1070
     0
1000
MTEXTEND
  0
POINT
  5
FD56
330
F6F4
100
AcDbEntity
  8
Defpoints
 62
     0
100
AcDbPoint
 10
3837.958389721114
 20
-5163.911551676081
 30
0.0
  0
POINT
  5
FD57
330
F6F4
100
AcDbEntity
  8
Defpoints
 62
     0
100
AcDbPoint
 10
3037.958389721114
 20
-5163.911551676079
 30
0.0
  0
POINT
  5
FD58
330
F6F4
100
AcDbEntity
  8
Defpoints
 62
     0
100
AcDbPoint
 10
3037.958389721114
 20
-5303.203838828537
 30
0.0
  0
ENDBLK
  5
F700
330
F6F4
100
AcDbEntity
  8
0
100
AcDbBlockEnd
  0
BLOCK
  5
F70C
330
F701
100
AcDbEntity
  8
0
100
AcDbBlockBegin
  2
*D42
 70
     1
 10
0.0
 20
0.0
 30
0.0
  3
*D42
  1

  0
LINE
  5
FD7A
330
F701
100
AcDbEntity
  8
COTAS
370
    -2
100
AcDbLine
 10
3820.958389721112
 20
-5180.91155167608
 30
0.0
 11
3980.250676873573
 21
-5180.91155167608
 31
0.0
  0
LINE
  5
FD7B
330
F701
100
AcDbEntity
  8
COTAS
370
    -2
100
AcDbLine
 10
3920.958389721114
 20
-4380.911551676081
 30
0.0
 11
3980.250676873574
 21
-4380.911551676081
 31
0.0
  0
LINE
  5
FD7C
330
F701
100
AcDbEntity
  8
COTAS
370
    -2
100
AcDbLine
 10
3960.250676873574
 20
-5150.91155167608
 30
0.0
 11
3960.250676873574
 21
-4833.054408818937
 31
0.0
  0
LINE
  5
FD7D
330
F701
100
AcDbEntity
  8
COTAS
370
    -2
100
AcDbLine
 10
3960.250676873574
 20
-4410.91155167608
 30
0.0
 11
3960.250676873574
 21
-4728.768694533223
 31
0.0
  0
SOLID
  5
FD7E
330
F701
100
AcDbEntity
  8
COTAS
100
AcDbTrace
 10
3955.250676873573
 20
-5150.91155167608
 30
0.0
 11
3965.250676873573
 21
-5150.91155167608
 31
0.0
 12
3960.250676873574
 22
-5180.91155167608
 32
0.0
 13
3960.250676873574
 23
-5180.91155167608
 33
0.0
  0
SOLID
  5
FD7F
330
F701
100
AcDbEntity
  8
COTAS
100
AcDbTrace
 10
3955.250676873574
 20
-4410.91155167608
 30
0.0
 11
3965.250676873574
 21
-4410.91155167608
 31
0.0
 12
3960.250676873574
 22
-4380.911551676081
 32
0.0
 13
3960.250676873574
 23
-4380.911551676081
 33
0.0
  0
MTEXT
  5
FD80
330
F701
100
AcDbEntity
  8
COTAS
 62
     6
100
AcDbMText
 10
3960.250676873574
 20
-4780.911551676079
 30
0.0
 40
25.0
 41
0.0
 71
     5
 72
     1
  1
\A1;800
  7
ROMANS
 11
0.0000000000000001
 21
1.0
 31
0.0
 73
     1
 44
1.0
1001
ACAD
1000
MTEXTBEGIN
1070
    73
1070
     1
1070
    44
1040
1.0
1070
    74
1070
     0
1000
MTEXTEND
  0
POINT
  5
FD81
330
F701
100
AcDbEntity
  8
Defpoints
 62
     0
100
AcDbPoint
 10
3820.958389721112
 20
-5180.91155167608
 30
0.0
  0
POINT
  5
FD82
330
F701
100
AcDbEntity
  8
Defpoints
 62
     0
100
AcDbPoint
 10
3920.958389721114
 20
-4380.911551676081
 30
0.0
  0
POINT
  5
FD83
330
F701
100
AcDbEntity
  8
Defpoints
 62
     0
100
AcDbPoint
 10
3960.250676873574
 20
-4380.911551676081
 30
0.0
  0
ENDBLK
  5
F70D
330
F701
100
AcDbEntity
  8
0
100
AcDbBlockEnd
  0
BLOCK
  5
F72E
330
F723
100
AcDbEntity
  8
0
100
AcDbBlockBegin
  2
*D43
 70
     1
 10
0.0
 20
0.0
 30
0.0
  3
*D43
  1

  0
LINE
  5
FD63
330
F723
100
AcDbEntity
  8
COTAS
370
    -2
100
AcDbLine
 10
3837.958389721114
 20
-5163.911551676081
 30
0.0
 11
3837.958389721114
 21
-5267.246058125611
 31
0.0
  0
LINE
  5
FD64
330
F723
100
AcDbEntity
  8
COTAS
370
    -2
100
AcDbLine
 10
3647.958389721117
 20
-5108.635221341731
 30
0.0
 11
3647.958389721117
 21
-5267.246058125611
 31
0.0
  0
LINE
  5
FD65
330
F723
100
AcDbEntity
  8
COTAS
370
    -2
100
AcDbLine
 10
3807.958389721114
 20
-5247.246058125611
 30
0.0
 11
3791.088268057374
 21
-5247.246058125611
 31
0.0
  0
LINE
  5
FD66
330
F723
100
AcDbEntity
  8
COTAS
370
    -2
100
AcDbLine
 10
3677.958389721116
 20
-5247.246058125611
 30
0.0
 11
3690.373982343089
 21
-5247.246058125611
 31
0.0
  0
SOLID
  5
FD67
330
F723
100
AcDbEntity
  8
COTAS
100
AcDbTrace
 10
3807.958389721114
 20
-5242.246058125611
 30
0.0
 11
3807.958389721114
 21
-5252.246058125611
 31
0.0
 12
3837.958389721114
 22
-5247.246058125611
 32
0.0
 13
3837.958389721114
 23
-5247.246058125611
 33
0.0
  0
SOLID
  5
FD68
330
F723
100
AcDbEntity
  8
COTAS
100
AcDbTrace
 10
3677.958389721116
 20
-5242.246058125611
 30
0.0
 11
3677.958389721116
 21
-5252.246058125611
 31
0.0
 12
3647.958389721117
 22
-5247.246058125611
 32
0.0
 13
3647.958389721117
 23
-5247.246058125611
 33
0.0
  0
MTEXT
  5
FD69
330
F723
100
AcDbEntity
  8
COTAS
 62
     6
100
AcDbMText
 10
3740.731125200232
 20
-5247.246058125611
 30
0.0
 40
25.0
 41
0.0
 71
     5
 72
     1
  1
\A1;190
  7
ROMANS
 73
     1
 44
1.0
1001
ACAD
1000
MTEXTBEGIN
1070
    73
1070
     1
1070
    44
1040
1.0
1070
    74
1070
     0
1000
MTEXTEND
  0
POINT
  5
FD6A
330
F723
100
AcDbEntity
  8
Defpoints
 62
     0
100
AcDbPoint
 10
3837.958389721114
 20
-5163.911551676081
 30
0.0
  0
POINT
  5
FD6B
330
F723
100
AcDbEntity
  8
Defpoints
 62
     0
100
AcDbPoint
 10
3647.958389721117
 20
-5108.635221341731
 30
0.0
  0
POINT
  5
FD6C
330
F723
100
AcDbEntity
  8
Defpoints
 62
     0
100
AcDbPoint
 10
3647.958389721117
 20
-5247.246058125611
 30
0.0
  0
ENDBLK
  5
F72F
330
F723
100
AcDbEntity
  8
0
100
AcDbBlockEnd
  0
BLOCK
  5
F9EA
330
F9DF
100
AcDbEntity
  8
0
100
AcDbBlockBegin
  2
*D44
 70
     1
 10
0.0
 20
0.0
 30
0.0
  3
*D44
  1

  0
LINE
  5
FDB9
330
F9DF
100
AcDbEntity
  8
COTAS
370
    -2
100
AcDbLine
 10
1831.958389721117
 20
-6939.457136365614
 30
0.0
 11
1934.361881637009
 21
-6939.457136365614
 31
0.0
  0
LINE
  5
FDBA
330
F9DF
100
AcDbEntity
  8
COTAS
370
    -2
100
AcDbLine
 10
1827.736721270508
 20
-6854.467797704668
 30
0.0
 11
1934.361881637009
 21
-6854.467797704668
 31
0.0
  0
LINE
  5
FDBB
330
F9DF
100
AcDbEntity
  8
COTAS
370
    -2
100
AcDbLine
 10
1914.36188163701
 20
-6969.457136365614
 30
0.0
 11
1914.36188163701
 21
-6999.457136365615
 31
0.0
  0
LINE
  5
FDBC
330
F9DF
100
AcDbEntity
  8
COTAS
370
    -2
100
AcDbLine
 10
1914.36188163701
 20
-6824.467797704667
 30
0.0
 11
1914.36188163701
 21
-6794.467797704666
 31
0.0
  0
SOLID
  5
FDBD
330
F9DF
100
AcDbEntity
  8
COTAS
100
AcDbTrace
 10
1909.361881637009
 20
-6969.457136365614
 30
0.0
 11
1919.36188163701
 21
-6969.457136365614
 31
0.0
 12
1914.36188163701
 22
-6939.457136365614
 32
0.0
 13
1914.36188163701
 23
-6939.457136365614
 33
0.0
  0
SOLID
  5
FDBE
330
F9DF
100
AcDbEntity
  8
COTAS
100
AcDbTrace
 10
1909.361881637009
 20
-6824.467797704667
 30
0.0
 11
1919.36188163701
 21
-6824.467797704667
 31
0.0
 12
1914.36188163701
 22
-6854.467797704668
 32
0.0
 13
1914.36188163701
 23
-6854.467797704668
 33
0.0
  0
MTEXT
  5
FDBF
330
F9DF
100
AcDbEntity
  8
COTAS
 62
     6
100
AcDbMText
 10
1914.361881637011
 20
-6896.962467035141
 30
0.0
 40
25.0
 41
0.0
 71
     5
 72
     1
  1
\A1;80
  7
ROMANS
 11
0.0000000000000001
 21
1.0
 31
0.0
 73
     1
 44
1.0
1001
ACAD
1000
MTEXTBEGIN
1070
    73
1070
     1
1070
    44
1040
1.0
1070
    74
1070
     0
1000
MTEXTEND
  0
POINT
  5
FDC0
330
F9DF
100
AcDbEntity
  8
Defpoints
 62
     0
100
AcDbPoint
 10
1831.958389721117
 20
-6939.457136365614
 30
0.0
  0
POINT
  5
FDC1
330
F9DF
100
AcDbEntity
  8
Defpoints
 62
     0
100
AcDbPoint
 10
1827.736721270508
 20
-6854.467797704668
 30
0.0
  0
POINT
  5
FDC2
330
F9DF
100
AcDbEntity
  8
Defpoints
 62
     0
100
AcDbPoint
 10
1914.36188163701
 20
-6854.467797704668
 30
0.0
  0
ENDBLK
  5
F9EB
330
F9DF
100
AcDbEntity
  8
0
100
AcDbBlockEnd
  0
BLOCK
  5
F9F8
330
F9EC
100
AcDbEntity
  8
0
100
AcDbBlockBegin
  2
*D45
 70
     1
 10
0.0
 20
0.0
 30
0.0
  3
*D45
  1

  0
LINE
  5
FDAE
330
F9EC
100
AcDbEntity
  8
COTAS
370
    -2
100
AcDbLine
 10
1679.263924160279
 20
-6949.480080057535
 30
0.0
 11
1679.263924160279
 21
-7035.551292066715
 31
0.0
  0
LINE
  5
FDAF
330
F9EC
100
AcDbEntity
  8
COTAS
370
    -2
100
AcDbLine
 10
1617.263928671377
 20
-6949.456428923337
 30
0.0
 11
1617.263928671377
 21
-7035.551292066715
 31
0.0
  0
LINE
  5
FDB0
330
F9EC
100
AcDbEntity
  8
COTAS
370
    -2
100
AcDbLine
 10
1587.263928671377
 20
-7017.551292066716
 30
0.0
 11
1557.263928671377
 21
-7017.551292066716
 31
0.0
  0
LINE
  5
FDB1
330
F9EC
100
AcDbEntity
  8
COTAS
370
    -2
100
AcDbLine
 10
1709.26392416028
 20
-7017.551292066716
 30
0.0
 11
1739.26392416028
 21
-7017.551292066716
 31
0.0
  0
LINE
  5
FDB2
330
F9EC
100
AcDbEntity
  8
COTAS
370
    -2
100
AcDbLine
 10
1617.263928671377
 20
-7017.551292066716
 30
0.0
 11
1679.263924160279
 21
-7017.551292066716
 31
0.0
  0
SOLID
  5
FDB3
330
F9EC
100
AcDbEntity
  8
COTAS
100
AcDbTrace
 10
1587.263928671377
 20
-7012.551292066715
 30
0.0
 11
1587.263928671377
 21
-7022.551292066715
 31
0.0
 12
1617.263928671377
 22
-7017.551292066716
 32
0.0
 13
1617.263928671377
 23
-7017.551292066716
 33
0.0
  0
SOLID
  5
FDB4
330
F9EC
100
AcDbEntity
  8
COTAS
100
AcDbTrace
 10
1709.26392416028
 20
-7012.551292066715
 30
0.0
 11
1709.26392416028
 21
-7022.551292066715
 31
0.0
 12
1679.263924160279
 22
-7017.551292066716
 32
0.0
 13
1679.263924160279
 23
-7017.551292066716
 33
0.0
  0
MTEXT
  5
FDB5
330
F9EC
100
AcDbEntity
  8
COTAS
 62
     6
100
AcDbMText
 10
1800.811543207899
 20
-7017.551292066716
 30
0.0
 40
25.0
 41
0.0
 71
     5
 72
     1
  1
\A1;%%C62
  7
ROMANS
 73
     1
 44
1.0
1001
ACAD
1000
MTEXTBEGIN
1070
    73
1070
     1
1070
    44
1040
1.0
1070
    74
1070
     0
1000
MTEXTEND
  0
POINT
  5
FDB6
330
F9EC
100
AcDbEntity
  8
Defpoints
 62
     0
100
AcDbPoint
 10
1679.263924160279
 20
-6939.480080057534
 30
0.0
  0
POINT
  5
FDB7
330
F9EC
100
AcDbEntity
  8
Defpoints
 62
     0
100
AcDbPoint
 10
1617.263928671377
 20
-6939.456428923335
 30
0.0
  0
POINT
  5
FDB8
330
F9EC
100
AcDbEntity
  8
Defpoints
 62
     0
100
AcDbPoint
 10
1617.263928671377
 20
-7017.551292066716
 30
0.0
  0
ENDBLK
  5
F9F9
330
F9EC
100
AcDbEntity
  8
0
100
AcDbBlockEnd
  0
BLOCK
  5
FA05
330
F9FA
100
AcDbEntity
  8
0
100
AcDbBlockBegin
  2
*D46
 70
     1
 10
0.0
 20
0.0
 30
0.0
  3
*D46
  1

  0
LINE
  5
FDE1
330
F9FA
100
AcDbEntity
  8
COTAS
370
    -2
100
AcDbLine
 10
1820.958389721114
 20
-8070.911551676081
 30
0.0
 11
1924.292896170642
 21
-8070.911551676081
 31
0.0
  0
LINE
  5
FDE2
330
F9FA
100
AcDbEntity
  8
COTAS
370
    -2
100
AcDbLine
 10
1765.682059386764
 20
-7880.911551676082
 30
0.0
 11
1924.292896170642
 21
-7880.911551676082
 31
0.0
  0
LINE
  5
FDE3
330
F9FA
100
AcDbEntity
  8
COTAS
370
    -2
100
AcDbLine
 10
1904.292896170642
 20
-8040.91155167608
 30
0.0
 11
1904.292896170642
 21
-8024.041430012342
 31
0.0
  0
LINE
  5
FDE4
330
F9FA
100
AcDbEntity
  8
COTAS
370
    -2
100
AcDbLine
 10
1904.292896170642
 20
-7910.911551676083
 30
0.0
 11
1904.292896170642
 21
-7923.327144298055
 31
0.0
  0
SOLID
  5
FDE5
330
F9FA
100
AcDbEntity
  8
COTAS
100
AcDbTrace
 10
1899.292896170642
 20
-8040.91155167608
 30
0.0
 11
1909.292896170643
 21
-8040.91155167608
 31
0.0
 12
1904.292896170642
 22
-8070.911551676081
 32
0.0
 13
1904.292896170642
 23
-8070.911551676081
 33
0.0
  0
SOLID
  5
FDE6
330
F9FA
100
AcDbEntity
  8
COTAS
100
AcDbTrace
 10
1899.292896170642
 20
-7910.911551676083
 30
0.0
 11
1909.292896170643
 21
-7910.911551676083
 31
0.0
 12
1904.292896170642
 22
-7880.911551676082
 32
0.0
 13
1904.292896170642
 23
-7880.911551676082
 33
0.0
  0
MTEXT
  5
FDE7
330
F9FA
100
AcDbEntity
  8
COTAS
 62
     6
100
AcDbMText
 10
1904.292896170644
 20
-7973.684287155198
 30
0.0
 40
25.0
 41
0.0
 71
     5
 72
     1
  1
\A1;190
  7
ROMANS
 11
0.0000000000000001
 21
1.0
 31
0.0
 73
     1
 44
1.0
1001
ACAD
1000
MTEXTBEGIN
1070
    73
1070
     1
1070
    44
1040
1.0
1070
    74
1070
     0
1000
MTEXTEND
  0
POINT
  5
FDE8
330
F9FA
100
AcDbEntity
  8
Defpoints
 62
     0
100
AcDbPoint
 10
1820.958389721114
 20
-8070.911551676081
 30
0.0
  0
POINT
  5
FDE9
330
F9FA
100
AcDbEntity
  8
Defpoints
 62
     0
100
AcDbPoint
 10
1765.682059386764
 20
-7880.911551676082
 30
0.0
  0
POINT
  5
FDEA
330
F9FA
100
AcDbEntity
  8
Defpoints
 62
     0
100
AcDbPoint
 10
1904.292896170642
 20
-7880.911551676082
 30
0.0
  0
ENDBLK
  5
FA06
330
F9FA
100
AcDbEntity
  8
0
100
AcDbBlockEnd
  0
BLOCK
  5
FA12
330
FA07
100
AcDbEntity
  8
0
100
AcDbBlockBegin
  2
*D47
 70
     1
 10
0.0
 20
0.0
 30
0.0
  3
*D47
  1

  0
LINE
  5
FDC3
330
FA07
100
AcDbEntity
  8
COTAS
370
    -2
100
AcDbLine
 10
1837.958389721115
 20
-8053.91155167608
 30
0.0
 11
1837.958389721115
 21
-8213.203838828539
 31
0.0
  0
LINE
  5
FDC4
330
FA07
100
AcDbEntity
  8
COTAS
370
    -2
100
AcDbLine
 10
937.958389721115
 20
-8053.91155167608
 30
0.0
 11
937.958389721115
 21
-8213.203838828539
 31
0.0
  0
LINE
  5
FDC5
330
FA07
100
AcDbEntity
  8
COTAS
370
    -2
100
AcDbLine
 10
1807.958389721115
 20
-8193.203838828537
 30
0.0
 11
1440.101246863972
 21
-8193.203838828537
 31
0.0
  0
LINE
  5
FDC6
330
FA07
100
AcDbEntity
  8
COTAS
370
    -2
100
AcDbLine
 10
967.958389721115
 20
-8193.203838828537
 30
0.0
 11
1335.815532578258
 21
-8193.203838828537
 31
0.0
  0
SOLID
  5
FDC7
330
FA07
100
AcDbEntity
  8
COTAS
100
AcDbTrace
 10
1807.958389721115
 20
-8188.203838828538
 30
0.0
 11
1807.958389721115
 21
-8198.203838828538
 31
0.0
 12
1837.958389721115
 22
-8193.203838828537
 32
0.0
 13
1837.958389721115
 23
-8193.203838828537
 33
0.0
  0
SOLID
  5
FDC8
330
FA07
100
AcDbEntity
  8
COTAS
100
AcDbTrace
 10
967.958389721115
 20
-8188.203838828538
 30
0.0
 11
967.958389721115
 21
-8198.203838828538
 31
0.0
 12
937.958389721115
 22
-8193.203838828537
 32
0.0
 13
937.958389721115
 23
-8193.203838828537
 33
0.0
  0
MTEXT
  5
FDC9
330
FA07
100
AcDbEntity
  8
COTAS
 62
     6
100
AcDbMText
 10
1387.958389721115
 20
-8193.203838828537
 30
0.0
 40
25.0
 41
0.0
 71
     5
 72
     1
  1
\A1;900
  7
ROMANS
 73
     1
 44
1.0
1001
ACAD
1000
MTEXTBEGIN
1070
    73
1070
     1
1070
    44
1040
1.0
1070
    74
1070
     0
1000
MTEXTEND
  0
POINT
  5
FDCA
330
FA07
100
AcDbEntity
  8
Defpoints
 62
     0
100
AcDbPoint
 10
1837.958389721115
 20
-8053.91155167608
 30
0.0
  0
POINT
  5
FDCB
330
FA07
100
AcDbEntity
  8
Defpoints
 62
     0
100
AcDbPoint
 10
937.958389721115
 20
-8053.91155167608
 30
0.0
  0
POINT
  5
FDCC
330
FA07
100
AcDbEntity
  8
Defpoints
 62
     0
100
AcDbPoint
 10
937.958389721115
 20
-8193.203838828537
 30
0.0
  0
ENDBLK
  5
FA13
330
FA07
100
AcDbEntity
  8
0
100
AcDbBlockEnd
  0
BLOCK
  5
FA1F
330
FA14
100
AcDbEntity
  8
0
100
AcDbBlockBegin
  2
*D48
 70
     1
 10
0.0
 20
0.0
 30
0.0
  3
*D48
  1

  0
LINE
  5
FDED
330
FA14
100
AcDbEntity
  8
COTAS
370
    -2
100
AcDbLine
 10
1820.958389721113
 20
-8070.911551676079
 30
0.0
 11
1980.250676873573
 21
-8070.911551676079
 31
0.0
  0
LINE
  5
FDEE
330
FA14
100
AcDbEntity
  8
COTAS
370
    -2
100
AcDbLine
 10
1920.958389721113
 20
-7350.911551676079
 30
0.0
 11
1980.250676873573
 21
-7350.911551676079
 31
0.0
  0
LINE
  5
FDEF
330
FA14
100
AcDbEntity
  8
COTAS
370
    -2
100
AcDbLine
 10
1960.250676873573
 20
-8040.91155167608
 30
0.0
 11
1960.250676873573
 21
-7763.054408818935
 31
0.0
  0
LINE
  5
FDF0
330
FA14
100
AcDbEntity
  8
COTAS
370
    -2
100
AcDbLine
 10
1960.250676873573
 20
-7380.911551676078
 30
0.0
 11
1960.250676873573
 21
-7658.768694533222
 31
0.0
  0
SOLID
  5
FDF1
330
FA14
100
AcDbEntity
  8
COTAS
100
AcDbTrace
 10
1955.250676873573
 20
-8040.91155167608
 30
0.0
 11
1965.250676873573
 21
-8040.91155167608
 31
0.0
 12
1960.250676873573
 22
-8070.911551676079
 32
0.0
 13
1960.250676873573
 23
-8070.911551676079
 33
0.0
  0
SOLID
  5
FDF2
330
FA14
100
AcDbEntity
  8
COTAS
100
AcDbTrace
 10
1955.250676873573
 20
-7380.911551676078
 30
0.0
 11
1965.250676873573
 21
-7380.911551676078
 31
0.0
 12
1960.250676873573
 22
-7350.911551676079
 32
0.0
 13
1960.250676873573
 23
-7350.911551676079
 33
0.0
  0
MTEXT
  5
FDF3
330
FA14
100
AcDbEntity
  8
COTAS
 62
     6
100
AcDbMText
 10
1960.250676873574
 20
-7710.911551676078
 30
0.0
 40
25.0
 41
0.0
 71
     5
 72
     1
  1
\A1;720
  7
ROMANS
 11
0.0000000000000001
 21
1.0
 31
0.0
 73
     1
 44
1.0
1001
ACAD
1000
MTEXTBEGIN
1070
    73
1070
     1
1070
    44
1040
1.0
1070
    74
1070
     0
1000
MTEXTEND
  0
POINT
  5
FDF4
330
FA14
100
AcDbEntity
  8
Defpoints
 62
     0
100
AcDbPoint
 10
1820.958389721113
 20
-8070.911551676079
 30
0.0
  0
POINT
  5
FDF5
330
FA14
100
AcDbEntity
  8
Defpoints
 62
     0
100
AcDbPoint
 10
1920.958389721113
 20
-7350.911551676079
 30
0.0
  0
POINT
  5
FDF6
330
FA14
100
AcDbEntity
  8
Defpoints
 62
     0
100
AcDbPoint
 10
1960.250676873573
 20
-7350.911551676079
 30
0.0
  0
ENDBLK
  5
FA20
330
FA14
100
AcDbEntity
  8
0
100
AcDbBlockEnd
  0
BLOCK
  5
FA41
330
FA36
100
AcDbEntity
  8
0
100
AcDbBlockBegin
  2
*D49
 70
     1
 10
0.0
 20
0.0
 30
0.0
  3
*D49
  1

  0
LINE
  5
FDD7
330
FA36
100
AcDbEntity
  8
COTAS
370
    -2
100
AcDbLine
 10
1837.958389721115
 20
-8053.91155167608
 30
0.0
 11
1837.958389721115
 21
-8157.246058125609
 31
0.0
  0
LINE
  5
FDD8
330
FA36
100
AcDbEntity
  8
COTAS
370
    -2
100
AcDbLine
 10
1647.958389721117
 20
-7998.635221341729
 30
0.0
 11
1647.958389721117
 21
-8157.246058125609
 31
0.0
  0
LINE
  5
FDD9
330
FA36
100
AcDbEntity
  8
COTAS
370
    -2
100
AcDbLine
 10
1807.958389721115
 20
-8137.24605812561
 30
0.0
 11
1791.088268057375
 21
-8137.24605812561
 31
0.0
  0
LINE
  5
FDDA
330
FA36
100
AcDbEntity
  8
COTAS
370
    -2
100
AcDbLine
 10
1677.958389721117
 20
-8137.24605812561
 30
0.0
 11
1690.37398234309
 21
-8137.24605812561
 31
0.0
  0
SOLID
  5
FDDB
330
FA36
100
AcDbEntity
  8
COTAS
100
AcDbTrace
 10
1807.958389721115
 20
-8132.246058125609
 30
0.0
 11
1807.958389721115
 21
-8142.246058125609
 31
0.0
 12
1837.958389721115
 22
-8137.24605812561
 32
0.0
 13
1837.958389721115
 23
-8137.24605812561
 33
0.0
  0
SOLID
  5
FDDC
330
FA36
100
AcDbEntity
  8
COTAS
100
AcDbTrace
 10
1677.958389721117
 20
-8132.246058125609
 30
0.0
 11
1677.958389721117
 21
-8142.246058125609
 31
0.0
 12
1647.958389721117
 22
-8137.24605812561
 32
0.0
 13
1647.958389721117
 23
-8137.24605812561
 33
0.0
  0
MTEXT
  5
FDDD
330
FA36
100
AcDbEntity
  8
COTAS
 62
     6
100
AcDbMText
 10
1740.731125200232
 20
-8137.24605812561
 30
0.0
 40
25.0
 41
0.0
 71
     5
 72
     1
  1
\A1;190
  7
ROMANS
 73
     1
 44
1.0
1001
ACAD
1000
MTEXTBEGIN
1070
    73
1070
     1
1070
    44
1040
1.0
1070
    74
1070
     0
1000
MTEXTEND
  0
POINT
  5
FDDE
330
FA36
100
AcDbEntity
  8
Defpoints
 62
     0
100
AcDbPoint
 10
1837.958389721115
 20
-8053.91155167608
 30
0.0
  0
POINT
  5
FDDF
330
FA36
100
AcDbEntity
  8
Defpoints
 62
     0
100
AcDbPoint
 10
1647.958389721117
 20
-7998.635221341729
 30
0.0
  0
POINT
  5
FDE0
330
FA36
100
AcDbEntity
  8
Defpoints
 62
     0
100
AcDbPoint
 10
1647.958389721117
 20
-8137.24605812561
 30
0.0
  0
ENDBLK
  5
FA42
330
FA36
100
AcDbEntity
  8
0
100
AcDbBlockEnd
  0
ENDSEC
  0
SECTION
  2
ENTITIES
  0
MTEXT
  5
7EB7
330
1F
100
AcDbEntity
  8
010
100
AcDbMText
 10
2567.023690000256
 20
1726.256874603049
 30
0.0
 40
2.5
 41
0.0
 71
     4
 72
     1
  1
\A1;
 73
     1
 44
1.0
1001
ACAD
1000
MTEXTBEGIN
1070
    73
1070
     1
1070
    44
1040
1.0
1070
    74
1070
     0
1000
MTEXTEND
  0
TEXT
  5
B501
330
1F
100
AcDbEntity
  8
tampon_distr._doc.
 62
   160
100
AcDbText
 10
800.3732093123781
 20
1412.209521422545
 30
0.0
 40
22.0
  1
DOCUMENTO
 41
0.85
  7
caja_tdd
100
AcDbText
  0
LINE
  5
B502
330
1F
100
AcDbEntity
  8
tampon_distr._doc.
 62
   160
100
AcDbLine
 10
790.7947884763362
 20
1086.516658866302
 30
0.0
 11
1960.794788476336
 21
1086.516658866302
 31
0.0
  0
LINE
  5
B503
330
1F
100
AcDbEntity
  8
tampon_distr._doc.
 62
   160
100
AcDbLine
 10
790.7947884763362
 20
1161.516658866302
 30
0.0
 11
1960.794788476336
 21
1161.516658866302
 31
0.0
  0
LINE
  5
B504
330
1F
100
AcDbEntity
  8
tampon_distr._doc.
 62
   160
100
AcDbLine
 10
790.7947884763362
 20
1236.516658866302
 30
0.0
 11
1960.794788476336
 21
1236.516658866302
 31
0.0
  0
LINE
  5
B505
330
1F
100
AcDbEntity
  8
tampon_distr._doc.
 62
   160
100
AcDbLine
 10
790.7947884763362
 20
1311.516658866302
 30
0.0
 11
1960.794788476336
 21
1311.516658866302
 31
0.0
  0
LINE
  5
B506
330
1F
100
AcDbEntity
  8
tampon_distr._doc.
 62
   160
100
AcDbLine
 10
790.7947884763362
 20
1386.516658866302
 30
0.0
 11
1960.794788476336
 21
1386.516658866302
 31
0.0
  0
LINE
  5
B507
330
1F
100
AcDbEntity
  8
tampon_distr._doc.
 62
   160
100
AcDbLine
 10
790.7947884763362
 20
1461.516658866302
 30
0.0
 11
1960.794788476336
 21
1461.516658866302
 31
0.0
  0
LINE
  5
B508
330
1F
100
AcDbEntity
  8
tampon_distr._doc.
 62
   160
100
AcDbLine
 10
790.7947884763362
 20
1536.516658866302
 30
0.0
 11
1960.794788476336
 21
1536.516658866302
 31
0.0
  0
LINE
  5
B509
330
1F
100
AcDbEntity
  8
tampon_distr._doc.
 62
   160
100
AcDbLine
 10
790.7947884763362
 20
1011.516658866302
 30
0.0
 11
1960.794788476336
 21
1011.516658866302
 31
0.0
  0
LINE
  5
B50A
330
1F
100
AcDbEntity
  8
tampon_distr._doc.
 62
   160
100
AcDbLine
 10
790.7947884763362
 20
1011.516658866302
 30
0.0
 11
790.7947884763362
 21
1536.516658866302
 31
0.0
  0
TEXT
  5
B50B
330
1F
100
AcDbEntity
  8
tampon_distr._doc.
 62
   160
100
AcDbText
 10
1692.004104028014
 20
1395.335803951992
 30
0.0
 40
22.0
  1
VIGOR
  7
caja_tdd
100
AcDbText
  0
TEXT
  5
B50C
330
1F
100
AcDbEntity
  8
tampon_distr._doc.
 62
   160
100
AcDbText
 10
1531.165974101672
 20
1427.023096850142
 30
0.0
 40
22.0
  1
FECHA
  7
caja_tdd
100
AcDbText
  0
TEXT
  5
B50D
330
1F
100
AcDbEntity
  8
tampon_distr._doc.
 62
   160
100
AcDbText
 10
1687.280794018656
 20
1427.023096850142
 30
0.0
 40
22.0
  1
FECHA
  7
caja_tdd
100
AcDbText
  0
TEXT
  5
B50E
330
1F
100
AcDbEntity
  8
tampon_distr._doc.
 62
   160
100
AcDbText
 10
1206.064058051992
 20
1412.209521422545
 30
0.0
 40
22.0
  1
DESTINO
  7
caja_tdd
100
AcDbText
  0
TEXT
  5
B50F
330
1F
100
AcDbEntity
  8
tampon_distr._doc.
 62
   160
100
AcDbText
 10
1507.03541641545
 20
1395.335803951992
 30
0.0
 40
22.0
  1
ENTREGA
  7
caja_tdd
100
AcDbText
  0
TEXT
  5
B510
330
1F
100
AcDbEntity
  8
tampon_distr._doc.
 62
   160
100
AcDbText
 10
1508.736821931228
 20
1326.85701903444
 30
0.0
 40
45.0
  1
03.12.03
 41
0.65
  7
MANO
100
AcDbText
  0
TEXT
  5
B511
330
1F
100
AcDbEntity
  8
tampon_distr._doc.
 62
   160
100
AcDbText
 10
991.1775918106231
 20
1412.209521422545
 30
0.0
 40
22.0
  1
REV.
  7
caja_tdd
100
AcDbText
  0
MTEXT
  5
B512
102
{ACAD_XDICTIONARY
360
FEF7
102
}
330
1F
100
AcDbEntity
  8
tampon_distr._doc.
 62
   160
100
AcDbMText
 10
1024.522051561649
 20
1517.756271435712
 30
0.0
 40
30.0
 41
900.3002079206556
 71
     1
 72
     5
  1
DISTRIBUCI\U+00D3N DE DOCUMENTOS
  7
caja_tdd
 73
     1
 44
1.0
1001
ACAD
1000
MTEXTBEGIN
1070
    73
1070
     1
1070
    44
1040
1.0
1070
    74
1070
     0
1000
MTEXTEND
  0
TEXT
  5
B513
330
1F
100
AcDbEntity
  8
tampon_distr._doc.
 62
   160
100
AcDbText
 10
1082.288080403954
 20
1326.85701903444
 30
0.0
 40
51.09471091417503
  1
Marketing
 41
0.9
  7
MANO
100
AcDbText
  0
TEXT
  5
B514
330
1F
100
AcDbEntity
  8
tampon_distr._doc.
 62
   160
100
AcDbText
 10
1828.4938267208
 20
1412.209521422545
 30
0.0
 40
22.0
  1
RECIBI
  7
caja_tdd
100
AcDbText
  0
LINE
  5
B515
330
1F
100
AcDbEntity
  8
tampon_distr._doc.
 62
   160
100
AcDbLine
 10
980.7947884763361
 20
1011.516658866302
 30
0.0
 11
980.7947884763361
 21
1461.516658866302
 31
0.0
  0
LINE
  5
B516
330
1F
100
AcDbEntity
  8
tampon_distr._doc.
 62
   160
100
AcDbLine
 10
1070.794788476336
 20
1011.516658866302
 30
0.0
 11
1070.794788476336
 21
1461.516658866302
 31
0.0
  0
LINE
  5
B517
330
1F
100
AcDbEntity
  8
tampon_distr._doc.
 62
   160
100
AcDbLine
 10
1659.679968559352
 20
1011.516658866302
 30
0.0
 11
1659.679968559352
 21
1461.516658866302
 31
0.0
  0
LINE
  5
B518
330
1F
100
AcDbEntity
  8
tampon_distr._doc.
 62
   160
100
AcDbLine
 10
1960.794788476336
 20
1011.516658866302
 30
0.0
 11
1960.794788476336
 21
1536.516658866302
 31
0.0
  0
LINE
  5
B519
330
1F
100
AcDbEntity
  8
tampon_distr._doc.
 62
   160
100
AcDbLine
 10
1815.794788476336
 20
1461.516658866302
 30
0.0
 11
1815.794788476336
 21
1011.516658866302
 31
0.0
  0
LINE
  5
B51A
330
1F
100
AcDbEntity
  8
tampon_distr._doc.
 62
   160
100
AcDbLine
 10
1503.565148642368
 20
1037.351042620749
 30
0.0
 11
1503.565148642368
 21
1487.351042620749
 31
0.0
  0
MTEXT
  5
B60F
102
{ACAD_XDICTIONARY
360
FEF9
102
}
330
1F
100
AcDbEntity
  8
tampon_distr._doc.
 62
   160
100
AcDbMText
 10
3124.52205156165
 20
1517.756271435712
 30
0.0
 40
30.0
 41
900.3002079206556
 71
     1
 72
     5
  1
DISTRIBUCI\U+00D3N DE DOCUMENTOS
  7
caja_tdd
 73
     1
 44
1.0
1001
ACAD
1000
MTEXTBEGIN
1070
    73
1070
     1
1070
    44
1040
1.0
1070
    74
1070
     0
1000
MTEXTEND
  0
TEXT
  5
B62C
330
1F
100
AcDbEntity
  8
tampon_distr._doc.
 62
   160
100
AcDbText
 10
3787.280794018656
 20
1427.023096850142
 30
0.0
 40
22.0
  1
FECHA
  7
caja_tdd
100
AcDbText
  0
TEXT
  5
B62D
330
1F
100
AcDbEntity
  8
tampon_distr._doc.
 62
   160
100
AcDbText
 10
3792.004104028014
 20
1395.335803951992
 30
0.0
 40
22.0
  1
VIGOR
  7
caja_tdd
100
AcDbText
  0
LINE
  5
B62E
330
1F
100
AcDbEntity
  8
tampon_distr._doc.
 62
   160
100
AcDbLine
 10
2890.794788476336
 20
1011.516658866302
 30
0.0
 11
4060.794788476336
 21
1011.516658866302
 31
0.0
  0
LINE
  5
B62F
330
1F
100
AcDbEntity
  8
tampon_distr._doc.
 62
   160
100
AcDbLine
 10
2890.794788476336
 20
1536.516658866302
 30
0.0
 11
4060.794788476336
 21
1536.516658866302
 31
0.0
  0
LINE
  5
B630
330
1F
100
AcDbEntity
  8
tampon_distr._doc.
 62
   160
100
AcDbLine
 10
2890.794788476336
 20
1461.516658866302
 30
0.0
 11
4060.794788476336
 21
1461.516658866302
 31
0.0
  0
LINE
  5
B631
330
1F
100
AcDbEntity
  8
tampon_distr._doc.
 62
   160
100
AcDbLine
 10
2890.794788476336
 20
1386.516658866302
 30
0.0
 11
4060.794788476336
 21
1386.516658866302
 31
0.0
  0
LINE
  5
B632
330
1F
100
AcDbEntity
  8
tampon_distr._doc.
 62
   160
100
AcDbLine
 10
2890.794788476336
 20
1311.516658866302
 30
0.0
 11
4060.794788476336
 21
1311.516658866302
 31
0.0
  0
LINE
  5
B633
330
1F
100
AcDbEntity
  8
tampon_distr._doc.
 62
   160
100
AcDbLine
 10
2890.794788476336
 20
1236.516658866302
 30
0.0
 11
4060.794788476336
 21
1236.516658866302
 31
0.0
  0
LINE
  5
B634
330
1F
100
AcDbEntity
  8
tampon_distr._doc.
 62
   160
100
AcDbLine
 10
2890.794788476336
 20
1161.516658866302
 30
0.0
 11
4060.794788476336
 21
1161.516658866302
 31
0.0
  0
LINE
  5
B635
330
1F
100
AcDbEntity
  8
tampon_distr._doc.
 62
   160
100
AcDbLine
 10
2890.794788476336
 20
1086.516658866302
 30
0.0
 11
4060.794788476336
 21
1086.516658866302
 31
0.0
  0
TEXT
  5
B651
330
1F
100
AcDbEntity
  8
tampon_distr._doc.
 62
   160
100
AcDbText
 10
3182.288080403954
 20
1326.85701903444
 30
0.0
 40
51.09471091417503
  1
Marketing
 41
0.9
  7
MANO
100
AcDbText
  0
LINE
  5
B655
330
1F
100
AcDbEntity
  8
tampon_distr._doc.
 62
   160
100
AcDbLine
 10
3170.794788476337
 20
1011.516658866302
 30
0.0
 11
3170.794788476337
 21
1461.516658866302
 31
0.0
  0
LINE
  5
B656
330
1F
100
AcDbEntity
  8
tampon_distr._doc.
 62
   160
100
AcDbLine
 10
3080.794788476336
 20
1011.516658866302
 30
0.0
 11
3080.794788476336
 21
1461.516658866302
 31
0.0
  0
LINE
  5
B657
330
1F
100
AcDbEntity
  8
tampon_distr._doc.
 62
   160
100
AcDbLine
 10
2890.794788476336
 20
1011.516658866302
 30
0.0
 11
2890.794788476336
 21
1536.516658866302
 31
0.0
  0
TEXT
  5
B659
330
1F
100
AcDbEntity
  8
tampon_distr._doc.
 62
   160
100
AcDbText
 10
2900.373209312378
 20
1412.209521422545
 30
0.0
 40
22.0
  1
DOCUMENTO
 41
0.85
  7
caja_tdd
100
AcDbText
  0
TEXT
  5
B65A
330
1F
100
AcDbEntity
  8
tampon_distr._doc.
 62
   160
100
AcDbText
 10
3091.177591810624
 20
1412.209521422545
 30
0.0
 40
22.0
  1
REV.
  7
caja_tdd
100
AcDbText
  0
LINE
  5
B65B
330
1F
100
AcDbEntity
  8
tampon_distr._doc.
 62
   160
100
AcDbLine
 10
3603.565148642369
 20
1011.516658866302
 30
0.0
 11
3603.565148642369
 21
1461.516658866302
 31
0.0
  0
LINE
  5
B65C
330
1F
100
AcDbEntity
  8
tampon_distr._doc.
 62
   160
100
AcDbLine
 10
3759.679968559352
 20
1011.516658866302
 30
0.0
 11
3759.679968559352
 21
1461.516658866302
 31
0.0
  0
TEXT
  5
B661
330
1F
100
AcDbEntity
  8
tampon_distr._doc.
 62
   160
100
AcDbText
 10
3306.064058051993
 20
1412.209521422545
 30
0.0
 40
22.0
  1
DESTINO
  7
caja_tdd
100
AcDbText
  0
TEXT
  5
B662
330
1F
100
AcDbEntity
  8
tampon_distr._doc.
 62
   160
100
AcDbText
 10
3608.736821931228
 20
1326.85701903444
 30
0.0
 40
45.0
  1
03.12.03
 41
0.65
  7
MANO
100
AcDbText
  0
TEXT
  5
B663
330
1F
100
AcDbEntity
  8
tampon_distr._doc.
 62
   160
100
AcDbText
 10
3607.035416415451
 20
1395.335803951992
 30
0.0
 40
22.0
  1
ENTREGA
  7
caja_tdd
100
AcDbText
  0
TEXT
  5
B664
330
1F
100
AcDbEntity
  8
tampon_distr._doc.
 62
   160
100
AcDbText
 10
3631.165974101672
 20
1427.023096850142
 30
0.0
 40
22.0
  1
FECHA
  7
caja_tdd
100
AcDbText
  0
LINE
  5
B668
330
1F
100
AcDbEntity
  8
tampon_distr._doc.
 62
   160
100
AcDbLine
 10
3915.794788476336
 20
1461.516658866302
 30
0.0
 11
3915.794788476336
 21
1011.516658866302
 31
0.0
  0
LINE
  5
B669
330
1F
100
AcDbEntity
  8
tampon_distr._doc.
 62
   160
100
AcDbLine
 10
4060.794788476336
 20
1011.516658866302
 30
0.0
 11
4060.794788476336
 21
1536.516658866302
 31
0.0
  0
TEXT
  5
B66A
330
1F
100
AcDbEntity
  8
tampon_distr._doc.
 62
   160
100
AcDbText
 10
3928.4938267208
 20
1412.209521422545
 30
0.0
 40
22.0
  1
RECIBI
  7
caja_tdd
100
AcDbText
  0
TEXT
  5
BD08
330
1F
100
AcDbEntity
  8
tampon_distr._doc.
 62
   160
100
AcDbText
 10
991.1775918106231
 20
-1531.956094823008
 30
0.0
 40
22.0
  1
REV.
  7
caja_tdd
100
AcDbText
  0
MTEXT
  5
BD09
102
{ACAD_XDICTIONARY
360
FEFB
102
}
330
1F
100
AcDbEntity
  8
tampon_distr._doc.
 62
   160
100
AcDbMText
 10
1024.522051561649
 20
-1426.409344809841
 30
0.0
 40
30.0
 41
900.3002079206556
 71
     1
 72
     5
  1
DISTRIBUCI\U+00D3N DE DOCUMENTOS
  7
caja_tdd
 73
     1
 44
1.0
1001
ACAD
1000
MTEXTBEGIN
1070
    73
1070
     1
1070
    44
1040
1.0
1070
    74
1070
     0
1000
MTEXTEND
  0
LINE
  5
BD0C
330
1F
100
AcDbEntity
  8
tampon_distr._doc.
 62
   160
100
AcDbLine
 10
790.7947884763362
 20
-1857.648957379251
 30
0.0
 11
1960.794788476336
 21
-1857.648957379251
 31
0.0
  0
LINE
  5
BD0D
330
1F
100
AcDbEntity
  8
tampon_distr._doc.
 62
   160
100
AcDbLine
 10
790.7947884763362
 20
-1782.648957379251
 30
0.0
 11
1960.794788476336
 21
-1782.648957379251
 31
0.0
  0
LINE
  5
BD0E
330
1F
100
AcDbEntity
  8
tampon_distr._doc.
 62
   160
100
AcDbLine
 10
790.7947884763362
 20
-1707.648957379251
 30
0.0
 11
1960.794788476336
 21
-1707.648957379251
 31
0.0
  0
LINE
  5
BD0F
330
1F
100
AcDbEntity
  8
tampon_distr._doc.
 62
   160
100
AcDbLine
 10
790.7947884763362
 20
-1632.648957379251
 30
0.0
 11
1960.794788476336
 21
-1632.648957379251
 31
0.0
  0
LINE
  5
BD10
330
1F
100
AcDbEntity
  8
tampon_distr._doc.
 62
   160
100
AcDbLine
 10
790.7947884763362
 20
-1557.648957379251
 30
0.0
 11
1960.794788476336
 21
-1557.648957379251
 31
0.0
  0
LINE
  5
BD11
330
1F
100
AcDbEntity
  8
tampon_distr._doc.
 62
   160
100
AcDbLine
 10
790.7947884763362
 20
-1482.64895737925
 30
0.0
 11
1960.794788476336
 21
-1482.64895737925
 31
0.0
  0
LINE
  5
BD12
330
1F
100
AcDbEntity
  8
tampon_distr._doc.
 62
   160
100
AcDbLine
 10
790.7947884763362
 20
-1407.64895737925
 30
0.0
 11
1960.794788476336
 21
-1407.64895737925
 31
0.0
  0
LINE
  5
BD13
330
1F
100
AcDbEntity
  8
tampon_distr._doc.
 62
   160
100
AcDbLine
 10
790.7947884763362
 20
-1932.648957379251
 30
0.0
 11
1960.794788476336
 21
-1932.648957379251
 31
0.0
  0
LINE
  5
BD2D
330
1F
100
AcDbEntity
  8
tampon_distr._doc.
 62
   160
100
AcDbLine
 10
790.7947884763362
 20
-1932.648957379251
 30
0.0
 11
790.7947884763362
 21
-1407.64895737925
 31
0.0
  0
LINE
  5
BD2E
330
1F
100
AcDbEntity
  8
tampon_distr._doc.
 62
   160
100
AcDbLine
 10
980.7947884763361
 20
-1932.648957379251
 30
0.0
 11
980.7947884763361
 21
-1482.64895737925
 31
0.0
  0
TEXT
  5
BD30
330
1F
100
AcDbEntity
  8
tampon_distr._doc.
 62
   160
100
AcDbText
 10
800.3732093123781
 20
-1531.956094823008
 30
0.0
 40
22.0
  1
DOCUMENTO
 41
0.85
  7
caja_tdd
100
AcDbText
  0
LINE
  5
BDC0
330
1F
100
AcDbEntity
  8
tampon_distr._doc.
 62
   160
100
AcDbLine
 10
1960.794788476336
 20
-1932.648957379251
 30
0.0
 11
1960.794788476336
 21
-1407.64895737925
 31
0.0
  0
LINE
  5
BDC1
330
1F
100
AcDbEntity
  8
tampon_distr._doc.
 62
   160
100
AcDbLine
 10
1815.794788476336
 20
-1482.64895737925
 30
0.0
 11
1815.794788476336
 21
-1932.648957379251
 31
0.0
  0
LINE
  5
BDC2
330
1F
100
AcDbEntity
  8
tampon_distr._doc.
 62
   160
100
AcDbLine
 10
1659.679968559352
 20
-1932.648957379251
 30
0.0
 11
1659.679968559352
 21
-1482.64895737925
 31
0.0
  0
LINE
  5
BDC3
330
1F
100
AcDbEntity
  8
tampon_distr._doc.
 62
   160
100
AcDbLine
 10
1503.565148642368
 20
-1932.648957379251
 30
0.0
 11
1503.565148642368
 21
-1482.64895737925
 31
0.0
  0
LINE
  5
BDC4
330
1F
100
AcDbEntity
  8
tampon_distr._doc.
 62
   160
100
AcDbLine
 10
1070.794788476336
 20
-1932.648957379251
 30
0.0
 11
1070.794788476336
 21
-1482.64895737925
 31
0.0
  0
TEXT
  5
BDCD
330
1F
100
AcDbEntity
  8
tampon_distr._doc.
 62
   160
100
AcDbText
 10
1531.165974101672
 20
-1517.14251939541
 30
0.0
 40
22.0
  1
FECHA
  7
caja_tdd
100
AcDbText
  0
TEXT
  5
BDCE
330
1F
100
AcDbEntity
  8
tampon_distr._doc.
 62
   160
100
AcDbText
 10
1507.03541641545
 20
-1548.829812293561
 30
0.0
 40
22.0
  1
ENTREGA
  7
caja_tdd
100
AcDbText
  0
TEXT
  5
BDCF
330
1F
100
AcDbEntity
  8
tampon_distr._doc.
 62
   160
100
AcDbText
 10
1508.736821931228
 20
-1617.308597211112
 30
0.0
 40
45.0
  1
16.09.03
 41
0.65
  7
MANO
100
AcDbText
  0
TEXT
  5
BDD0
330
1F
100
AcDbEntity
  8
tampon_distr._doc.
 62
   160
100
AcDbText
 10
1082.288080403954
 20
-1617.308597211112
 30
0.0
 40
51.09471091417503
  1
Marketing
 41
0.9
  7
MANO
100
AcDbText
  0
TEXT
  5
BDD1
330
1F
100
AcDbEntity
  8
tampon_distr._doc.
 62
   160
100
AcDbText
 10
1206.064058051992
 20
-1531.956094823008
 30
0.0
 40
22.0
  1
DESTINO
  7
caja_tdd
100
AcDbText
  0
TEXT
  5
BDD2
330
1F
100
AcDbEntity
  8
tampon_distr._doc.
 62
   160
100
AcDbText
 10
1687.280794018656
 20
-1517.14251939541
 30
0.0
 40
22.0
  1
FECHA
  7
caja_tdd
100
AcDbText
  0
TEXT
  5
BDD3
330
1F
100
AcDbEntity
  8
tampon_distr._doc.
 62
   160
100
AcDbText
 10
1692.004104028014
 20
-1548.829812293561
 30
0.0
 40
22.0
  1
VIGOR
  7
caja_tdd
100
AcDbText
  0
TEXT
  5
BDD4
330
1F
100
AcDbEntity
  8
tampon_distr._doc.
 62
   160
100
AcDbText
 10
1828.4938267208
 20
-1531.956094823008
 30
0.0
 40
22.0
  1
RECIBI
  7
caja_tdd
100
AcDbText
  0
TEXT
  5
CFCB
330
1F
100
AcDbEntity
  8
tampon_distr._doc.
 62
   160
100
AcDbText
 10
3091.177591810624
 20
-1531.956094823008
 30
0.0
 40
22.0
  1
REV.
  7
caja_tdd
100
AcDbText
  0
MTEXT
  5
CFCC
102
{ACAD_XDICTIONARY
360
FEFD
102
}
330
1F
100
AcDbEntity
  8
tampon_distr._doc.
 62
   160
100
AcDbMText
 10
3124.52205156165
 20
-1426.409344809841
 30
0.0
 40
30.0
 41
900.3002079206556
 71
     1
 72
     5
  1
DISTRIBUCI\U+00D3N DE DOCUMENTOS
  7
caja_tdd
 73
     1
 44
1.0
1001
ACAD
1000
MTEXTBEGIN
1070
    73
1070
     1
1070
    44
1040
1.0
1070
    74
1070
     0
1000
MTEXTEND
  0
LINE
  5
CFCE
330
1F
100
AcDbEntity
  8
tampon_distr._doc.
 62
   160
100
AcDbLine
 10
2890.794788476336
 20
-1857.648957379251
 30
0.0
 11
4060.794788476336
 21
-1857.648957379251
 31
0.0
  0
LINE
  5
CFCF
330
1F
100
AcDbEntity
  8
tampon_distr._doc.
 62
   160
100
AcDbLine
 10
2890.794788476336
 20
-1782.648957379251
 30
0.0
 11
4060.794788476336
 21
-1782.648957379251
 31
0.0
  0
LINE
  5
CFD0
330
1F
100
AcDbEntity
  8
tampon_distr._doc.
 62
   160
100
AcDbLine
 10
2890.794788476336
 20
-1707.648957379251
 30
0.0
 11
4060.794788476336
 21
-1707.648957379251
 31
0.0
  0
LINE
  5
CFD1
330
1F
100
AcDbEntity
  8
tampon_distr._doc.
 62
   160
100
AcDbLine
 10
2890.794788476336
 20
-1632.648957379251
 30
0.0
 11
4060.794788476336
 21
-1632.648957379251
 31
0.0
  0
LINE
  5
CFD2
330
1F
100
AcDbEntity
  8
tampon_distr._doc.
 62
   160
100
AcDbLine
 10
2890.794788476336
 20
-1557.648957379251
 30
0.0
 11
4060.794788476336
 21
-1557.648957379251
 31
0.0
  0
LINE
  5
CFD3
330
1F
100
AcDbEntity
  8
tampon_distr._doc.
 62
   160
100
AcDbLine
 10
2890.794788476336
 20
-1482.64895737925
 30
0.0
 11
4060.794788476336
 21
-1482.64895737925
 31
0.0
  0
LINE
  5
CFD4
330
1F
100
AcDbEntity
  8
tampon_distr._doc.
 62
   160
100
AcDbLine
 10
2890.794788476336
 20
-1407.64895737925
 30
0.0
 11
4060.794788476336
 21
-1407.64895737925
 31
0.0
  0
LINE
  5
CFD5
330
1F
100
AcDbEntity
  8
tampon_distr._doc.
 62
   160
100
AcDbLine
 10
2890.794788476336
 20
-1932.648957379251
 30
0.0
 11
4060.794788476336
 21
-1932.648957379251
 31
0.0
  0
LINE
  5
CFEE
330
1F
100
AcDbEntity
  8
tampon_distr._doc.
 62
   160
100
AcDbLine
 10
2890.794788476336
 20
-1932.648957379251
 30
0.0
 11
2890.794788476336
 21
-1407.64895737925
 31
0.0
  0
LINE
  5
CFEF
330
1F
100
AcDbEntity
  8
tampon_distr._doc.
 62
   160
100
AcDbLine
 10
3080.794788476336
 20
-1932.648957379251
 30
0.0
 11
3080.794788476336
 21
-1482.64895737925
 31
0.0
  0
TEXT
  5
CFF1
330
1F
100
AcDbEntity
  8
tampon_distr._doc.
 62
   160
100
AcDbText
 10
2900.373209312378
 20
-1531.956094823008
 30
0.0
 40
22.0
  1
DOCUMENTO
 41
0.85
  7
caja_tdd
100
AcDbText
  0
LINE
  5
D05E
330
1F
100
AcDbEntity
  8
tampon_distr._doc.
 62
   160
100
AcDbLine
 10
4060.794788476336
 20
-1932.648957379251
 30
0.0
 11
4060.794788476336
 21
-1407.64895737925
 31
0.0
  0
LINE
  5
D05F
330
1F
100
AcDbEntity
  8
tampon_distr._doc.
 62
   160
100
AcDbLine
 10
3915.794788476336
 20
-1482.64895737925
 30
0.0
 11
3915.794788476336
 21
-1932.648957379251
 31
0.0
  0
LINE
  5
D060
330
1F
100
AcDbEntity
  8
tampon_distr._doc.
 62
   160
100
AcDbLine
 10
3759.679968559352
 20
-1932.648957379251
 30
0.0
 11
3759.679968559352
 21
-1482.64895737925
 31
0.0
  0
LINE
  5
D061
330
1F
100
AcDbEntity
  8
tampon_distr._doc.
 62
   160
100
AcDbLine
 10
3603.565148642369
 20
-1932.648957379251
 30
0.0
 11
3603.565148642369
 21
-1482.64895737925
 31
0.0
  0
LINE
  5
D062
330
1F
100
AcDbEntity
  8
tampon_distr._doc.
 62
   160
100
AcDbLine
 10
3170.794788476337
 20
-1932.648957379251
 30
0.0
 11
3170.794788476337
 21
-1482.64895737925
 31
0.0
  0
TEXT
  5
D06B
330
1F
100
AcDbEntity
  8
tampon_distr._doc.
 62
   160
100
AcDbText
 10
3631.165974101672
 20
-1517.14251939541
 30
0.0
 40
22.0
  1
FECHA
  7
caja_tdd
100
AcDbText
  0
TEXT
  5
D06C
330
1F
100
AcDbEntity
  8
tampon_distr._doc.
 62
   160
100
AcDbText
 10
3607.035416415451
 20
-1548.829812293561
 30
0.0
 40
22.0
  1
ENTREGA
  7
caja_tdd
100
AcDbText
  0
TEXT
  5
D06D
330
1F
100
AcDbEntity
  8
tampon_distr._doc.
 62
   160
100
AcDbText
 10
3608.736821931228
 20
-1617.308597211112
 30
0.0
 40
45.0
  1
16.09.03
 41
0.65
  7
MANO
100
AcDbText
  0
TEXT
  5
D06E
330
1F
100
AcDbEntity
  8
tampon_distr._doc.
 62
   160
100
AcDbText
 10
3182.288080403954
 20
-1617.308597211112
 30
0.0
 40
51.09471091417503
  1
Marketing
 41
0.9
  7
MANO
100
AcDbText
  0
TEXT
  5
D06F
330
1F
100
AcDbEntity
  8
tampon_distr._doc.
 62
   160
100
AcDbText
 10
3306.064058051993
 20
-1531.956094823008
 30
0.0
 40
22.0
  1
DESTINO
  7
caja_tdd
100
AcDbText
  0
TEXT
  5
D070
330
1F
100
AcDbEntity
  8
tampon_distr._doc.
 62
   160
100
AcDbText
 10
3787.280794018656
 20
-1517.14251939541
 30
0.0
 40
22.0
  1
FECHA
  7
caja_tdd
100
AcDbText
  0
TEXT
  5
D071
330
1F
100
AcDbEntity
  8
tampon_distr._doc.
 62
   160
100
AcDbText
 10
3792.004104028014
 20
-1548.829812293561
 30
0.0
 40
22.0
  1
VIGOR
  7
caja_tdd
100
AcDbText
  0
TEXT
  5
D072
330
1F
100
AcDbEntity
  8
tampon_distr._doc.
 62
   160
100
AcDbText
 10
3928.4938267208
 20
-1531.956094823008
 30
0.0
 40
22.0
  1
RECIBI
  7
caja_tdd
100
AcDbText
  0
TEXT
  5
E4DE
330
1F
100
AcDbEntity
  8
tampon_distr._doc.
 62
   160
100
AcDbText
 10
1013.269238466075
 20
1326.85701903444
 30
0.0
 40
51.09471091417503
  1
a
 41
0.9
  7
MANO
100
AcDbText
  0
TEXT
  5
E4DF
330
1F
100
AcDbEntity
  8
tampon_distr._doc.
 62
   160
100
AcDbText
 10
3113.269238466075
 20
1326.85701903444
 30
0.0
 40
51.09471091417503
  1
a
 41
0.9
  7
MANO
100
AcDbText
  0
INSERT
  5
F0A2
330
1F
100
AcDbEntity
  8
ASHADE
 62
     1
100
AcDbBlockReference
  2
AVE_RENDER
 10
0.0
 20
0.0
 30
0.0
1001
AVE_RENDER
1002
{
1070
     7
1000
Pref
1070
    50
1070
    20
1070
     1
1070
     0
1000

1070
    10
1070
     1
1070
    10
1040
1.0
1070
     1
1040
0.7
1040
1.0
1040
0.0
1040
10.0
1010
-1.0
1020
-1.0
1030
-1.0
1040
0.3
1070
    49
1070
     0
1070
     0
1010
1.0
1020
1.0
1030
1.0
1040
45.0
1070
     1
1070
     0
1000
WCS
1040
0.0
1070
     0
1040
10.0
1002
}
  0
INSERT
  5
F0A3
330
1F
100
AcDbEntity
  8
ASHADE
 62
     3
100
AcDbBlockReference
  2
AVE_RENDER
 10
0.0
 20
0.0
 30
0.0
1001
AVE_RENDER
1002
{
1070
     0
1000
Full Opt
1070
     0
1070
     1
1070
     1
1070
     1
1070
     0
1070
     0
1070
     0
1070
     1
1070
     1
1040
0.0001
1040
0.0001
1002
}
  0
INSERT
  5
F0A4
330
1F
100
AcDbEntity
  8
ASHADE
 62
     4
100
AcDbBlockReference
  2
AVE_RENDER
 10
0.0
 20
0.0
 30
0.0
1001
AVE_RENDER
1002
{
1070
     0
1000
Quick Opt
1070
     0
1070
     1
1070
     1
1070
     1
1070
     0
1070
     0
1070
     1
1002
}
  0
INSERT
  5
F0A5
330
1F
100
AcDbEntity
  8
ASHADE
 62
     5
100
AcDbBlockReference
  2
AVE_RENDER
 10
0.0
 20
0.0
 30
0.0
1001
AVE_RENDER
1002
{
1070
     1
1000
Scanl Opt
1070
     2
1070
     0
1070
     2
1040
2.0
1040
4.0
1070
     0
1070
     1
1070
     0
1040
0.03
1002
}
  0
INSERT
  5
F0A6
330
1F
100
AcDbEntity
  8
ASHADE
 62
     6
100
AcDbBlockReference
  2
AVE_RENDER
 10
0.0
 20
0.0
 30
0.0
1001
AVE_RENDER
1002
{
1070
     2
1000
Raytr Opt
1070
     2
1070
     0
1070
     2
1040
2.0
1040
4.0
1070
     0
1070
     1
1070
     1
1040
0.03
1070
     3
1040
0.03
1002
}
  0
INSERT
  5
F0A7
330
1F
100
AcDbEntity
  8
ASHADE
 62
     7
100
AcDbBlockReference
  2
AVE_RENDER
 10
0.0
 20
0.0
 30
0.0
1001
AVE_RENDER
1002
{
1070
     0
1000
RFile Opt
1070
     1
1070
   640
1070
   480
1070
 10000
1070
     1
1070
     8
1070
     8
1070
     0
1070
     0
1070
     0
1070
     0
1070
     0
1070
     0
1070
     0
1002
}
  0
INSERT
  5
F0A8
330
1F
100
AcDbEntity
  8
ASHADE
 62
     8
100
AcDbBlockReference
  2
AVE_RENDER
 10
0.0
 20
0.0
 30
0.0
1001
AVE_RENDER
1002
{
1070
     0
1000
Fog Opt
1070
     0
1070
     0
1040
0.0
1040
1.0
1040
0.0
1040
1.0
1010
0.5
1020
0.5
1030
0.5
1002
}
  0
INSERT
  5
F0A9
330
1F
100
AcDbEntity
  8
ASHADE
 62
     9
100
AcDbBlockReference
  2
AVE_RENDER
 10
0.0
 20
0.0
 30
0.0
1001
AVE_RENDER
1002
{
1070
     0
1000
BG Opt
1070
     0
1070
     1
1010
0.0
1020
0.0
1030
0.0
1010
1.0
1020
0.0
1030
0.0
1010
0.0
1020
1.0
1030
0.0
1010
0.0
1020
0.0
1030
1.0
1040
0.5
1040
0.33
1040
0.0
1000

1070
     1
1000

1070
     1
1070
     1
1040
1.0
1040
1.0
1040
0.0
1040
0.0
1070
     0
1002
}
  0
INSERT
  5
F0B0
330
1F
100
AcDbEntity
  8
ASHADE
 62
     1
100
AcDbBlockReference
  2
AVE_GLOBAL
 10
0.0
 20
0.0
 30
0.0
1001
AVE_MATERIAL
1002
{
1000
*GLOBAL*
1000
2
1000
Acabado global.
1002
{
1002
}
1002
{
1070
    63
1002
{
1002
{
1010
-1.0
1020
-1.0
1030
-1.0
1002
}
1040
0.6999999880790711
1000

1040
0.0
1002
{
1002
}
1040
0.0
1002
{
1002
}
1040
0.0
1002
}
1002
{
1002
{
1010
-1.0
1020
-1.0
1030
-1.0
1002
}
1040
1.0
1000

1040
0.0
1002
{
1002
}
1040
0.0
1002
{
1002
}
1040
0.0
1002
}
1002
{
1002
{
1010
-1.0
1020
-1.0
1030
-1.0
1002
}
1040
0.2000000029802322
1000

1040
0.0
1002
{
1002
}
1040
0.0
1002
{
1002
}
1040
0.0
1002
}
1002
{
1070
     0
1002
{
1070
     1
1002
{
1040
1.0
1040
1.0
1000

1040
0.0
1002
{
1002
}
1040
0.0
1002
{
1002
}
1040
0.0
1002
}
1002
}
1040
1.0
1040
0.0
1040
0.0
1002
}
1002
{
1040
1.0
1040
1.0
1000

1040
0.0
1002
{
1002
}
1040
0.0
1002
{
1002
}
1040
0.0
1002
}
1002
{
1040
0.5
1040
1.0
1000

1040
0.0
1002
{
1002
}
1040
0.0
1002
{
1002
}
1040
0.0
1002
}
1002
{
1070
     0
1040
0.0
1002
{
1002
}
1040
1.0
1002
{
1002
}
1040
0.0
1002
}
1002
{
1040
0.0
1002
{
1002
{
1010
0.0
1020
0.0
1030
0.0
1002
}
1040
1.0
1000

1040
0.0
1002
{
1002
}
1040
0.0
1002
{
1002
}
1040
0.0
1002
}
1002
}
1002
{
1002
{
1070
     1
1002
{
1040
0.0
1040
1.0
1000

1040
0.0
1002
{
1002
}
1040
0.0
1002
{
1002
}
1040
0.0
1002
}
1002
}
1040
0.0
1002
{
1002
}
1010
1.0
1020
0.0
1030
0.0
1010
0.0
1020
1.0
1030
0.0
1010
0.0
1020
0.0
1030
1.0
1070
     0
1002
}
1002
{
1002
{
1040
1.0
1040
1.0
1002
{
1070
     1
1002
{
1040
1.0
1040
1.0
1000

1040
0.0
1002
{
1002
}
1040
0.0
1002
{
1002
}
1040
0.0
1002
}
1002
}
1002
}
1070
     0
1040
0.0
1002
{
1002
}
1002
}
1002
{
1002
}
1002
}
1002
{
1071
        3
1070
     3
1070
     0
1002
{
1070
     2
1070
     0
1070
     0
1040
0.0
1002
}
1070
     0
1070
     2
1002
{
1002
}
1002
}
1002
{
1040
8030.0
1040
190.3000030517578
1040
0.3050000071525574
1040
228.0
1040
545.0
1040
14.0
1040
17.39999961853027
1040
0.4560000002384186
1002
}
1000

1002
}
  0
LINE
  5
F8C8
330
1F
100
AcDbEntity
  8
0
 62
     3
100
AcDbLine
 10
1737.958389721117
 20
-7458.911551676078
 30
0.0
 11
1737.958389721117
 21
-7985.13334055426
 31
0.0
  0
LINE
  5
F8C9
330
1F
100
AcDbEntity
  8
0
100
AcDbLine
 10
1752.958389721117
 20
-7443.911551676079
 30
0.0
 11
1752.958389721115
 21
-8002.91155167608
 31
0.0
  0
LWPOLYLINE
  5
F8CA
102
{ACAD_REACTORS
330
F9DB
102
}
330
1F
100
AcDbEntity
  8
0
100
AcDbPolyline
 90
        2
 70
     0
 43
0.0
 10
1837.958389721117
 20
-7367.91155167608
 10
1837.958389721115
 20
-8053.91155167608
  0
LWPOLYLINE
  5
F8CB
330
1F
100
AcDbEntity
  8
0
100
AcDbPolyline
 90
        2
 70
     0
 43
0.0
 10
937.9583897211169
 20
-7367.91155167608
 10
937.958389721115
 20
-8053.91155167608
  0
ARC
  5
F8CC
330
1F
100
AcDbEntity
  8
0
100
AcDbCircle
 10
1744.958389721115
 20
-7443.911551676079
 30
0.0
 40
8.0
100
AcDbArc
 50
0.0
 51
90.0
  0
LWPOLYLINE
  5
F8CD
330
1F
100
AcDbEntity
  8
0
100
AcDbPolyline
 90
        2
 70
     0
 43
0.0
 10
1820.958389721113
 20
-7350.911551676079
 10
954.9583897211169
 20
-7350.911551676079
  0
LINE
  5
F8CE
330
1F
100
AcDbEntity
  8
0
100
AcDbLine
 10
1030.958389721115
 20
-7435.911551676078
 30
0.0
 11
1744.958389721115
 21
-7435.911551676078
 31
0.0
  0
ARC
  5
F8CF
330
1F
100
AcDbEntity
  8
0
100
AcDbCircle
 10
1820.958389721113
 20
-7367.91155167608
 30
0.0
 40
17.0
100
AcDbArc
 50
0.0
 51
90.0
  0
LINE
  5
F8D0
330
1F
100
AcDbEntity
  8
0
 62
     3
100
AcDbLine
 10
1045.958389721115
 20
-7450.911551676078
 30
0.0
 11
1729.958389721115
 21
-7450.911551676078
 31
0.0
  0
ARC
  5
F8D1
330
1F
100
AcDbEntity
  8
0
 62
     3
100
AcDbCircle
 10
1729.958389721115
 20
-7458.911551676078
 30
0.0
 40
8.0
100
AcDbArc
 50
0.0
 51
90.0
  0
LINE
  5
F8D2
330
1F
100
AcDbEntity
  8
0
 62
     3
100
AcDbLine
 10
1045.958389721115
 20
-7993.13334055426
 30
0.0
 11
1729.958389721115
 21
-7993.13334055426
 31
0.0
  0
LINE
  5
F8D3
330
1F
100
AcDbEntity
  8
0
100
AcDbLine
 10
1777.958389721115
 20
-8010.911551676079
 30
0.0
 11
997.9583897211169
 21
-8010.911551676079
 31
0.0
  0
LWPOLYLINE
  5
F8D4
330
1F
100
AcDbEntity
  8
0
100
AcDbPolyline
 90
        2
 70
     0
 43
0.0
 10
1820.958389721113
 20
-8070.911551676079
 10
954.9583897211169
 20
-8070.911551676079
  0
ARC
  5
F8D5
330
1F
100
AcDbEntity
  8
0
 62
     3
100
AcDbCircle
 10
1729.958389721115
 20
-7985.13334055426
 30
0.0
 40
8.0
100
AcDbArc
 50
270.0
 51
0.0
  0
ARC
  5
F8D6
330
1F
100
AcDbEntity
  8
0
100
AcDbCircle
 10
1744.958389721115
 20
-8002.91155167608
 30
0.0
 40
8.0
100
AcDbArc
 50
270.0
 51
0.0
  0
ARC
  5
F8D7
330
1F
100
AcDbEntity
  8
0
100
AcDbCircle
 10
1820.958389721113
 20
-8053.911551676078
 30
0.0
 40
17.0
100
AcDbArc
 50
270.0
 51
0.0
  0
LINE
  5
F8D8
330
1F
100
AcDbEntity
  8
0
 62
     3
100
AcDbLine
 10
1037.958389721113
 20
-7458.911551676078
 30
0.0
 11
1037.958389721113
 21
-7985.13334055426
 31
0.0
  0
LINE
  5
F8D9
330
1F
100
AcDbEntity
  8
0
100
AcDbLine
 10
1022.958389721113
 20
-7443.911551676079
 30
0.0
 11
1022.958389721117
 21
-8002.91155167608
 31
0.0
  0
LWPOLYLINE
  5
F8DA
330
1F
100
AcDbEntity
  8
0
100
AcDbPolyline
 90
        2
 70
     0
 43
0.0
 10
937.9583897211132
 20
-7367.91155167608
 10
937.958389721115
 20
-8053.91155167608
  0
ARC
  5
F8DB
330
1F
100
AcDbEntity
  8
0
100
AcDbCircle
 10
954.9583897211169
 20
-7367.91155167608
 30
0.0
 40
17.0
100
AcDbArc
 50
90.0
 51
180.0
  0
ARC
  5
F8DC
330
1F
100
AcDbEntity
  8
0
 62
     3
100
AcDbCircle
 10
1045.958389721115
 20
-7458.911551676078
 30
0.0
 40
8.0
100
AcDbArc
 50
90.0
 51
180.0
  0
ARC
  5
F8DD
330
1F
100
AcDbEntity
  8
0
100
AcDbCircle
 10
1030.958389721115
 20
-7443.911551676079
 30
0.0
 40
8.0
100
AcDbArc
 50
90.0
 51
180.0
  0
ARC
  5
F8DE
330
1F
100
AcDbEntity
  8
0
100
AcDbCircle
 10
954.9583897211167
 20
-8053.911551676078
 30
0.0
 40
17.0
100
AcDbArc
 50
180.0
 51
270.0
  0
ARC
  5
F8DF
330
1F
100
AcDbEntity
  8
0
 62
     3
100
AcDbCircle
 10
1045.958389721115
 20
-7985.13334055426
 30
0.0
 40
8.0
100
AcDbArc
 50
180.0
 51
270.0
  0
ARC
  5
F8E0
330
1F
100
AcDbEntity
  8
0
100
AcDbCircle
 10
1030.958389721115
 20
-8002.91155167608
 30
0.0
 40
8.0
100
AcDbArc
 50
180.0
 51
270.0
  0
DIMENSION
  5
F8E1
330
1F
100
AcDbEntity
  8
COTAS
100
AcDbDimension
  2
*D47
 10
937.958389721115
 20
-8193.203838828537
 30
0.0
 11
1387.958389721115
 21
-8193.203838828537
 31
0.0
 70
    32
 71
     5
 42
900.0
  3
STANDARD
100
AcDbAlignedDimension
 13
1837.958389721115
 23
-8053.91155167608
 33
0.0
 14
937.958389721115
 24
-8053.91155167608
 34
0.0
100
AcDbRotatedDimension
1001
ACAD
1000
DSTYLE
1002
{
1070
   287
1070
     0
1070
   287
1070
     0
1070
   287
1070
     0
1070
   287
1070
     0
1070
   287
1070
     0
1070
   287
1070
     0
1070
   287
1070
     0
1070
   287
1070
     0
1070
   287
1070
     0
1070
   287
1070
     0
1070
    40
1040
10.0
1070
    41
1040
3.0
1070
    42
1040
0.0
1070
    43
1040
7.0
1070
    44
1040
2.0
1070
    47
1040
20.0
1070
    48
1040
20.0
1070
    73
1070
     0
1070
    74
1070
     0
1070
   140
1040
2.5
1070
   141
1040
1.5
1070
   146
1040
0.75
1070
   147
1040
2.0
1070
   176
1070
   256
1070
   177
1070
   256
1070
   178
1070
     6
1070
   271
1070
     0
1070
   272
1070
     1
1070
   284
1070
     8
1070
   288
1070
     1
1070
   289
1070
     0
1070
   340
1005
AB35
1002
}
  0
LINE
  5
F8E2
330
1F
100
AcDbEntity
  8
EJES
100
AcDbLine
 10
1765.682059386765
 20
-7880.91155167608
 30
0.0
 11
1530.234720055465
 21
-7880.911551676078
 31
0.0
  0
DIMENSION
  5
F8F3
330
1F
100
AcDbEntity
  8
COTAS
100
AcDbDimension
  2
*D48
 10
1960.250676873573
 20
-7350.911551676079
 30
0.0
 11
1960.250676873574
 21
-7710.911551676078
 31
0.0
 70
    32
 71
     5
 42
720.0
  3
STANDARD
100
AcDbAlignedDimension
 13
1820.958389721113
 23
-8070.911551676079
 33
0.0
 14
1920.958389721113
 24
-7350.911551676079
 34
0.0
 50
270.0
100
AcDbRotatedDimension
1001
ACAD
1000
DSTYLE
1002
{
1070
   287
1070
     0
1070
   287
1070
     0
1070
   287
1070
     0
1070
   287
1070
     0
1070
   287
1070
     0
1070
   287
1070
     0
1070
   287
1070
     0
1070
   287
1070
     0
1070
   287
1070
     0
1070
   287
1070
     0
1070
    40
1040
10.0
1070
    41
1040
3.0
1070
    42
1040
0.0
1070
    43
1040
7.0
1070
    44
1040
2.0
1070
    47
1040
20.0
1070
    48
1040
20.0
1070
    73
1070
     0
1070
    74
1070
     0
1070
   140
1040
2.5
1070
   141
1040
1.5
1070
   146
1040
0.75
1070
   147
1040
2.0
1070
   176
1070
   256
1070
   177
1070
   256
1070
   178
1070
     6
1070
   271
1070
     0
1070
   272
1070
     1
1070
   284
1070
     8
1070
   288
1070
     1
1070
   289
1070
     0
1070
   340
1005
AB35
1002
}
  0
DIMENSION
  5
F964
330
1F
100
AcDbEntity
  8
COTAS
100
AcDbDimension
  2
*D44
 10
1914.36188163701
 20
-6854.467797704668
 30
0.0
 11
1914.361881637011
 21
-6896.962467035141
 31
0.0
 70
   160
  1
80
 71
     5
 42
84.98933866094739
  3
STANDARD
100
AcDbAlignedDimension
 13
1831.958389721117
 23
-6939.457136365614
 33
0.0
 14
1827.736721270508
 24
-6854.467797704668
 34
0.0
 50
90.0
100
AcDbRotatedDimension
1001
ACAD
1000
DSTYLE
1002
{
1070
   287
1070
     0
1070
   287
1070
     0
1070
   287
1070
     0
1070
   287
1070
     0
1070
   287
1070
     0
1070
   287
1070
     0
1070
   287
1070
     0
1070
   287
1070
     0
1070
   287
1070
     0
1070
   287
1070
     0
1070
    40
1040
10.0
1070
    41
1040
3.0
1070
    42
1040
0.0
1070
    43
1040
7.0
1070
    44
1040
2.0
1070
    47
1040
20.0
1070
    48
1040
20.0
1070
    73
1070
     0
1070
    74
1070
     0
1070
   140
1040
2.5
1070
   141
1040
1.5
1070
   146
1040
0.75
1070
   147
1040
4.0
1070
   176
1070
   256
1070
   177
1070
   256
1070
   178
1070
     6
1070
   271
1070
     0
1070
   272
1070
     1
1070
   284
1070
     8
1070
   288
1070
     1
1070
   289
1070
     0
1070
   340
1005
AB35
1002
}
  0
LINE
  5
F965
330
1F
100
AcDbEntity
  8
0
100
AcDbLine
 10
939.1800581717243
 20
-6863.467797704666
 30
0.0
 11
937.958389721115
 21
-6933.457136365614
 31
0.0
  0
LINE
  5
F966
330
1F
100
AcDbEntity
  8
0
100
AcDbLine
 10
949.0940811207902
 20
-6868.480688331693
 30
0.0
 11
948.1199574810316
 21
-6924.288194277088
 31
0.0
  0
ARC
  5
F967
330
1F
100
AcDbEntity
  8
0
100
AcDbCircle
 10
1647.958389721117
 20
-7880.911551676082
 30
0.0
 40
31.5
100
AcDbArc
 50
90.0
 51
270.0
  0
ARC
  5
F968
330
1F
100
AcDbEntity
  8
0
 62
     3
100
AcDbCircle
 10
1647.958389721116
 20
-7880.911551676081
 30
0.0
 40
45.99999999999997
100
AcDbArc
 50
269.9999999999992
 51
90.00000000000055
  0
ARC
  5
F969
330
1F
100
AcDbEntity
  8
0
 62
     3
100
AcDbCircle
 10
1647.958389721117
 20
-7880.911551676081
 30
0.0
 40
45.99999999999997
100
AcDbArc
 50
89.99999999999952
 51
270.0000000000009
  0
LINE
  5
F96A
102
{ACAD_REACTORS
330
F9DB
102
}
330
1F
100
AcDbEntity
  8
EJES
100
AcDbLine
 10
1647.958389721117
 20
-7763.187882010436
 30
0.0
 11
1647.958389721117
 21
-7998.635221341729
 31
0.0
  0
ARC
  5
F96B
330
1F
100
AcDbEntity
  8
0
100
AcDbCircle
 10
1647.958389721116
 20
-7880.911551676082
 30
0.0
 40
31.5
100
AcDbArc
 50
270.0
 51
90.0
  0
LINE
  5
F96C
330
1F
100
AcDbEntity
  8
0
100
AcDbLine
 10
943.9583897211141
 20
-6939.457136365614
 30
0.0
 11
950.2751081481155
 21
-6939.457136365614
 31
0.0
  0
ARC
  5
F96D
330
1F
100
AcDbEntity
  8
0
100
AcDbCircle
 10
951.1199574810316
 20
-6924.288194277088
 30
0.0
 40
3.0
100
AcDbArc
 50
180.0
 51
295.4926432396213
  0
ARC
  5
F96E
330
1F
100
AcDbEntity
  8
0
100
AcDbCircle
 10
979.6904876938761
 20
-6933.457136365614
 30
0.0
 40
6.0
100
AcDbArc
 50
270.0
 51
327.2004195958476
  0
ARC
  5
F970
330
1F
100
AcDbEntity
  8
0
100
AcDbCircle
 10
1005.748488122057
 20
-6950.249414760309
 30
0.0
 40
35.0
100
AcDbArc
 50
88.95087858309521
 51
139.9352879122498
  0
ARC
  5
F971
330
1F
100
AcDbEntity
  8
0
100
AcDbCircle
 10
977.4317234065275
 20
-6926.434275960684
 30
0.0
 40
2.0
100
AcDbArc
 50
235.5809372615743
 51
319.9352879122488
  0
ARC
  5
F972
330
1F
100
AcDbEntity
  8
0
100
AcDbCircle
 10
976.226291748353
 20
-6933.457136365614
 30
0.0
 40
6.0
100
AcDbArc
 50
216.8698976458429
 51
270.0
  0
ARC
  5
F973
330
1F
100
AcDbEntity
  8
0
100
AcDbCircle
 10
968.3878595082706
 20
-6939.63308370191
 30
0.0
 40
14.0
100
AcDbArc
 50
55.58093726157125
 51
90.0
  0
LINE
  5
F974
330
1F
100
AcDbEntity
  8
0
100
AcDbLine
 10
976.226291748353
 20
-6939.457136365614
 30
0.0
 11
979.6904876938761
 21
-6939.457136365614
 31
0.0
  0
ARC
  5
F975
330
1F
100
AcDbEntity
  8
0
100
AcDbCircle
 10
958.2751081481156
 20
-6939.457136365614
 30
0.0
 40
4.0
100
AcDbArc
 50
90.0
 51
143.1301023541543
  0
ARC
  5
F976
330
1F
100
AcDbEntity
  8
0
100
AcDbCircle
 10
968.226291748353
 20
-6939.457136365614
 30
0.0
 40
4.0
100
AcDbArc
 50
36.86989764584564
 51
90.0
  0
LINE
  5
F977
330
1F
100
AcDbEntity
  8
0
100
AcDbLine
 10
958.4366759080321
 20
-6925.633083701909
 30
0.0
 11
968.3878595082706
 21
-6925.633083701909
 31
0.0
  0
LINE
  5
F978
330
1F
100
AcDbEntity
  8
0
100
AcDbLine
 10
958.2751081481156
 20
-6935.457136365615
 30
0.0
 11
968.226291748353
 21
-6935.457136365615
 31
0.0
  0
ARC
  5
F979
330
1F
100
AcDbEntity
  8
0
100
AcDbCircle
 10
958.4366759080321
 20
-6939.63308370191
 30
0.0
 40
14.0
100
AcDbArc
 50
90.0
 51
115.492643239619
  0
ARC
  5
F97A
330
1F
100
AcDbEntity
  8
0
100
AcDbCircle
 10
950.2751081481155
 20
-6933.457136365614
 30
0.0
 40
6.0
100
AcDbArc
 50
270.0
 51
323.130102354157
  0
ARC
  5
F97B
330
1F
100
AcDbEntity
  8
0
100
AcDbCircle
 10
943.9583897211141
 20
-6933.457136365614
 30
0.0
 40
6.0
100
AcDbArc
 50
180.0
 51
270.0
  0
ARC
  5
F97C
330
1F
100
AcDbEntity
  8
0
100
AcDbCircle
 10
978.6054912677055
 20
-6906.679611798594
 30
0.0
 40
48.0
100
AcDbArc
 50
8.024032699390669
 51
74.23718839138072
  0
ARC
  5
F97E
330
1F
100
AcDbEntity
  8
0
100
AcDbCircle
 10
1040.988743318807
 20
-6897.885871779199
 30
0.0
 40
25.0
100
AcDbArc
 50
188.0237271016142
 51
215.29208167688
  0
ARC
  5
F97F
330
1F
100
AcDbEntity
  8
0
100
AcDbCircle
 10
1018.950872366512
 20
-6913.484982134922
 30
0.0
 40
2.0
100
AcDbArc
 50
268.9508785830966
 51
35.29208167688361
  0
ARC
  5
F980
330
1F
100
AcDbEntity
  8
0
100
AcDbCircle
 10
978.6054912677055
 20
-6906.679611798594
 30
0.0
 40
38.0
100
AcDbArc
 50
8.02372710161487
 51
74.23718839138072
  0
ARC
  5
F981
330
1F
100
AcDbEntity
  8
0
100
AcDbCircle
 10
948.1800581717234
 20
-6863.467797704666
 30
0.0
 40
9.0
100
AcDbArc
 50
90.0
 51
180.0000000000007
  0
ARC
  5
F982
330
1F
100
AcDbEntity
  8
0
100
AcDbCircle
 10
953.0934719014158
 20
-6868.550497957443
 30
0.0
 40
4.0
100
AcDbArc
 50
88.07143125962307
 51
178.9999999999998
  0
ARC
  5
F983
330
1F
100
AcDbEntity
  8
0
100
AcDbCircle
 10
948.1800581717234
 20
-7014.467797704667
 30
0.0
 40
150.0
100
AcDbArc
 50
74.23718839138096
 51
88.07143125962307
  0
ARC
  5
F984
330
1F
100
AcDbEntity
  8
0
100
AcDbCircle
 10
948.1800581717234
 20
-7014.467797704667
 30
0.0
 40
160.0
100
AcDbArc
 50
74.23718839138096
 51
90.0
  0
LINE
  5
F9A2
330
1F
100
AcDbEntity
  8
0
 62
     4
100
AcDbLine
 10
1592.303177840543
 20
-6919.295285832816
 30
0.0
 11
1704.158283693043
 21
-6919.295285832816
 31
0.0
  0
LINE
  5
F9A3
330
1F
100
AcDbEntity
  8
0
 62
     4
100
AcDbLine
 10
1602.376407215202
 20
-6922.594579681706
 30
0.0
 11
1693.529847974384
 21
-6922.594579681706
 31
0.0
  0
LINE
  5
F9A4
330
1F
100
AcDbEntity
  8
0
 62
     4
100
AcDbLine
 10
1616.958393935798
 20
-6939.456029095875
 30
0.0
 11
1678.958385506437
 21
-6939.458243635354
 31
0.0
  0
LINE
  5
F9A5
330
1F
100
AcDbEntity
  8
0
 62
     4
100
AcDbLine
 10
1617.094059239212
 20
-6933.272999001698
 30
0.0
 11
1678.818860123897
 21
-6933.272999001698
 31
0.0
  0
LINE
  5
F9A6
330
1F
100
AcDbEntity
  8
0
100
AcDbLine
 10
1678.958385506436
 20
-6935.793517501905
 30
0.0
 11
1678.958385506437
 21
-6939.458243635354
 31
0.0
  0
LINE
  5
F9A7
330
1F
100
AcDbEntity
  8
0
 62
     4
100
AcDbLine
 10
950.2751081481155
 20
-6939.457136365614
 30
0.0
 11
1825.663022279431
 21
-6939.446858782343
 31
0.0
  0
ARC
  5
F9A8
330
1F
100
AcDbEntity
  8
0
100
AcDbCircle
 10
1611.958393935799
 20
-6935.793517501902
 30
0.0
 40
4.99999999999909
100
AcDbArc
 50
359.9999999999791
 51
55.49999999999776
  0
LINE
  5
F9A9
330
1F
100
AcDbEntity
  8
0
100
AcDbLine
 10
1614.790425120423
 20
-6931.672886558793
 30
0.0
 11
1601.896223721909
 21
-6922.810947461219
 31
0.0
  0
ARC
  5
F9AA
330
1F
100
AcDbEntity
  8
0
100
AcDbCircle
 10
1590.568098983412
 20
-6939.293471233661
 30
0.0
 40
20.00000000000076
100
AcDbArc
 50
55.5000000000016
 51
88.95087858309576
  0
LINE
  5
F9AB
330
1F
100
AcDbEntity
  8
0
100
AcDbLine
 10
1593.817126855901
 20
-6933.014472223419
 30
0.0
 11
1603.192872438985
 21
-6939.458243635368
 31
0.0
  0
ARC
  5
F9AC
330
1F
100
AcDbEntity
  8
0
100
AcDbCircle
 10
1591.551501908201
 20
-6936.310976977907
 30
0.0
 40
4.0
100
AcDbArc
 50
55.49999999999842
 51
88.95087858309535
  0
LINE
  5
F9AD
330
1F
100
AcDbEntity
  8
0
100
AcDbLine
 10
1603.192872438985
 20
-6939.458243635368
 30
0.0
 11
1616.958393935798
 21
-6939.456029095875
 31
0.0
  0
LINE
  5
F9AE
330
1F
100
AcDbEntity
  8
0
100
AcDbLine
 10
1616.958393935798
 20
-6939.456029095875
 30
0.0
 11
1616.958393935798
 21
-6935.774814866862
 31
0.0
  0
LINE
  5
F9AF
330
1F
100
AcDbEntity
  8
0
100
AcDbLine
 10
1826.844049306757
 20
-6868.470410748424
 30
0.0
 11
1827.818172946516
 21
-6924.277916693816
 31
0.0
  0
ARC
  5
F9B0
330
1F
100
AcDbEntity
  8
0
100
AcDbCircle
 10
1824.818172946515
 20
-6924.277916693816
 30
0.0
 40
3.0
100
AcDbArc
 50
244.5073567603747
 51
0.000000000000007
  0
ARC
  5
F9B1
330
1F
100
AcDbEntity
  8
0
100
AcDbCircle
 10
1817.501454519516
 20
-6939.622806118638
 30
0.0
 40
14.00000000000006
100
AcDbArc
 50
64.50735676038532
 51
90.00000000000369
  0
LINE
  5
F9B2
330
1F
100
AcDbEntity
  8
0
100
AcDbLine
 10
1817.501454519515
 20
-6925.622806118638
 30
0.0
 11
1807.550270919276
 21
-6925.622806118638
 31
0.0
  0
ARC
  5
F9B3
330
1F
100
AcDbEntity
  8
0
100
AcDbCircle
 10
1807.550270919277
 20
-6939.622806118638
 30
0.0
 40
14.0
100
AcDbArc
 50
90.00000000000369
 51
130.411093988338
  0
ARC
  5
F9B4
330
1F
100
AcDbEntity
  8
0
100
AcDbCircle
 10
1797.332639159841
 20
-6906.669334215322
 30
0.0
 40
37.99999999999977
100
AcDbArc
 50
105.7628116086198
 51
177.3290851025971
  0
ARC
  5
F9B5
330
1F
100
AcDbEntity
  8
0
100
AcDbCircle
 10
1827.758072255823
 20
-7014.457520121395
 30
0.0
 40
150.0000000000011
100
AcDbArc
 50
91.92856874037657
 51
105.7628116086186
  0
ARC
  5
F9B6
330
1F
100
AcDbEntity
  8
0
100
AcDbCircle
 10
1822.844658526131
 20
-6868.540220374173
 30
0.0
 40
4.000000000000142
100
AcDbArc
 50
1.000000000001776
 51
91.9285687403817
  0
LINE
  5
F9B7
330
1F
100
AcDbEntity
  8
0
100
AcDbLine
 10
1678.958385506437
 20
-6939.458243635354
 30
0.0
 11
1692.72390700325
 21
-6939.458243635368
 31
0.0
  0
LINE
  5
F9B8
330
1F
100
AcDbEntity
  8
0
100
AcDbLine
 10
1692.72390700325
 20
-6939.458243635368
 30
0.0
 11
1702.088460315406
 21
-6933.022164458113
 31
0.0
  0
ARC
  5
F9B9
330
1F
100
AcDbEntity
  8
0
100
AcDbCircle
 10
1704.354085263104
 20
-6936.3186692126
 30
0.0
 40
3.999999999999729
100
AcDbArc
 50
90.92674321609164
 51
124.5000000000057
  0
LINE
  5
F9BA
330
1F
100
AcDbEntity
  8
0
100
AcDbLine
 10
1704.289389202404
 20
-6932.319192444357
 30
0.0
 11
1774.76275497633
 21
-6931.179206037652
 31
0.0
  0
LINE
  5
F9BB
330
1F
100
AcDbEntity
  8
0
100
AcDbLine
 10
1754.281129099742
 20
-6921.509211253294
 30
0.0
 11
1774.601014824584
 21
-6921.180514117039
 31
0.0
  0
ARC
  5
F9BC
330
1F
100
AcDbEntity
  8
0
100
AcDbCircle
 10
1796.247642733674
 20
-6933.446858782345
 30
0.0
 40
5.999999999999684
100
AcDbArc
 50
227.1550023412324
 51
270.0
  0
ARC
  5
F9BD
330
1F
100
AcDbEntity
  8
0
100
AcDbCircle
 10
1775.167105355696
 20
-6956.175935839183
 30
0.0
 40
25.0
100
AcDbArc
 50
47.15500234123343
 51
90.9267432160942
  0
ARC
  5
F9BE
330
1F
100
AcDbEntity
  8
0
100
AcDbCircle
 10
1775.167105355696
 20
-6956.175935839183
 30
0.0
 40
35.0
100
AcDbArc
 50
50.99258331746471
 51
90.9267432160942
  0
ARC
  5
F9BF
330
1F
100
AcDbEntity
  8
0
100
AcDbCircle
 10
1797.826260774216
 20
-6928.201614118731
 30
0.0
 40
1.0
100
AcDbArc
 50
230.9925833174594
 51
310.4110939883299
  0
LINE
  5
F9C0
330
1F
100
AcDbEntity
  8
0
100
AcDbLine
 10
1796.247642733674
 20
-6939.446858782343
 30
0.0
 11
1799.711838679194
 21
-6939.446858782343
 31
0.0
  0
ARC
  5
F9C1
330
1F
100
AcDbEntity
  8
0
100
AcDbCircle
 10
1799.711838679193
 20
-6933.446858782339
 30
0.0
 40
6.000000000003183
100
AcDbArc
 50
270.0
 51
323.1301023541352
  0
ARC
  5
F9C2
330
1F
100
AcDbEntity
  8
0
100
AcDbCircle
 10
1807.711838679195
 20
-6939.446858782345
 30
0.0
 40
4.000000000002273
100
AcDbArc
 50
90.0
 51
143.1301023541351
  0
LINE
  5
F9C3
330
1F
100
AcDbEntity
  8
0
100
AcDbLine
 10
1807.711838679196
 20
-6935.446858782343
 30
0.0
 11
1817.66302227943
 21
-6935.446858782343
 31
0.0
  0
ARC
  5
F9C4
330
1F
100
AcDbEntity
  8
0
100
AcDbCircle
 10
1817.66302227943
 20
-6939.446858782345
 30
0.0
 40
4.000000000001454
100
AcDbArc
 50
36.86989764587269
 51
90.0
  0
ARC
  5
F9C5
330
1F
100
AcDbEntity
  8
0
100
AcDbCircle
 10
1825.663022279432
 20
-6933.446858782336
 30
0.0
 40
6.000000000005365
100
AcDbArc
 50
216.8698976458683
 51
270.0
  0
LINE
  5
F9C6
330
1F
100
AcDbEntity
  8
0
100
AcDbLine
 10
1825.663022279432
 20
-6939.446858782343
 30
0.0
 11
1831.979740706436
 21
-6939.446858782343
 31
0.0
  0
ARC
  5
F9C7
330
1F
100
AcDbEntity
  8
0
100
AcDbCircle
 10
1831.979740706436
 20
-6933.446858782346
 30
0.0
 40
5.999999999995452
100
AcDbArc
 50
270.0
 51
2.000000001695498
  0
LINE
  5
F9C8
330
1F
100
AcDbEntity
  8
0
100
AcDbLine
 10
1837.976085668545
 20
-6933.237461801955
 30
0.0
 11
1836.758072255822
 21
-6863.457520121383
 31
0.0
  0
ARC
  5
F9C9
330
1F
100
AcDbEntity
  8
0
100
AcDbCircle
 10
1827.758072255823
 20
-6863.457520121396
 30
0.0
 40
9.0
100
AcDbArc
 50
0.0000000000752717
 51
90.0
  0
ARC
  5
F9CA
330
1F
100
AcDbEntity
  8
0
100
AcDbCircle
 10
1827.758072255823
 20
-7014.457520121395
 30
0.0
 40
160.0
100
AcDbArc
 50
89.99999999999969
 51
105.7628116086183
  0
ARC
  5
F9CB
330
1F
100
AcDbEntity
  8
0
100
AcDbCircle
 10
1797.332639159841
 20
-6906.669334215322
 30
0.0
 40
47.99999999999966
100
AcDbArc
 50
105.7628116086182
 51
177.3290851025972
  0
ARC
  5
F9CC
330
1F
100
AcDbEntity
  8
0
100
AcDbCircle
 10
1734.401078646313
 20
-6903.733573439622
 30
0.0
 40
15.0
100
AcDbArc
 50
271.0915441416599
 51
357.3290851025977
  0
ARC
  5
F9CD
330
1F
100
AcDbEntity
  8
0
100
AcDbCircle
 10
1734.401078646313
 20
-6903.733573439622
 30
0.0
 40
25.0
100
AcDbArc
 50
319.8176874378976
 51
357.3290851025977
  0
ARC
  5
F9CE
330
1F
100
AcDbEntity
  8
0
100
AcDbCircle
 10
1754.264955084567
 20
-6920.509342061233
 30
0.0
 40
1.0
100
AcDbArc
 50
139.8176874379003
 51
270.9267432161305
  0
LINE
  5
F9CF
330
1F
100
AcDbEntity
  8
0
100
AcDbLine
 10
1734.686826948609
 20
-6918.730851456238
 30
0.0
 11
1704.967682722427
 21
-6919.297100544835
 31
0.0
  0
ARC
  5
F9D0
330
1F
100
AcDbEntity
  8
0
100
AcDbCircle
 10
1705.348680458822
 20
-6939.293471233658
 30
0.0
 40
19.99999999999887
100
AcDbArc
 50
91.09154414166258
 51
124.5000000000021
  0
LINE
  5
F9D1
330
1F
100
AcDbEntity
  8
0
100
AcDbLine
 10
1694.020555720326
 20
-6922.810947461219
 30
0.0
 11
1681.126354321812
 21
-6931.672886558793
 31
0.0
  0
ARC
  5
F9D2
330
1F
100
AcDbEntity
  8
0
100
AcDbCircle
 10
1683.958385506436
 20
-6935.793517501903
 30
0.0
 40
5.000000000000025
100
AcDbArc
 50
124.4999999999963
 51
180.0000000000261
  0
LINE
  5
F9D3
330
1F
100
AcDbEntity
  8
0
100
AcDbLine
 10
1040.813865561905
 20
-6912.88452015105
 30
0.0
 11
1590.934290979433
 21
-6919.296823929123
 31
0.0
  0
LINE
  5
F9D4
330
1F
100
AcDbEntity
  8
0
100
AcDbLine
 10
1006.049563569508
 20
-6925.251716818614
 30
0.0
 11
1591.624740307405
 21
-6932.311647517
 31
0.0
  0
LINE
  5
F9D5
330
1F
100
AcDbEntity
  8
0
100
AcDbLine
 10
1006.389324115093
 20
-6915.255281977369
 30
0.0
 11
1018.91425316691
 21
-6915.484646865374
 31
0.0
  0
LINE
  5
F9D6
330
1F
100
AcDbEntity
  8
0
 62
     4
100
AcDbLine
 10
948.1800581717234
 20
-6854.467797704668
 30
0.0
 11
1827.758072255823
 21
-6854.457520121396
 31
0.0
  0
LINE
  5
F9D7
330
1F
100
AcDbEntity
  8
EJES
 48
0.5
100
AcDbLine
 10
1647.936833694565
 20
-6996.168875854408
 30
0.0
 11
1647.978463648204
 21
-6862.756353017584
 31
0.0
  0
DIMENSION
  5
F9D8
330
1F
100
AcDbEntity
  8
COTAS
100
AcDbDimension
  2
*D45
 10
1617.263928671377
 20
-7017.551292066716
 30
0.0
 11
1800.811543207899
 21
-7017.551292066716
 31
0.0
 70
   160
  1
%%C62
 71
     5
 42
61.99999548890264
  3
STANDARD
100
AcDbAlignedDimension
 13
1679.263924160279
 23
-6939.480080057534
 33
0.0
 14
1617.263928671377
 24
-6939.456428923335
 34
0.0
 50
180.0
100
AcDbRotatedDimension
1001
ACAD
1000
DSTYLE
1002
{
1070
   287
1070
     0
1070
   287
1070
     0
1070
   287
1070
     0
1070
   287
1070
     0
1070
   287
1070
     0
1070
   287
1070
     0
1070
   287
1070
     0
1070
   287
1070
     0
1070
   287
1070
     0
1070
   287
1070
     0
1070
    40
1040
10.0
1070
    41
1040
3.0
1070
    42
1040
1.0
1070
    43
1040
3.5
1070
    44
1040
1.8
1070
    73
1070
     0
1070
    74
1070
     0
1070
    78
1070
     8
1070
   140
1040
2.5
1070
   141
1040
1.5
1070
   146
1040
2.0
1070
   147
1040
3.0
1070
   172
1070
     1
1070
   176
1070
   256
1070
   177
1070
   256
1070
   178
1070
     6
1070
   271
1070
     2
1070
   272
1070
     2
1070
   284
1070
     8
1070
   285
1070
     8
1070
   286
1070
     8
1070
   288
1070
     1
1070
   289
1070
     0
1070
   340
1005
AB35
1002
}
  0
DIMENSION
  5
F9D9
102
{ACAD_XDICTIONARY
360
F9DA
102
}
102
{ACAD_REACTORS
330
F9DB
102
}
330
1F
100
AcDbEntity
  8
COTAS
100
AcDbDimension
  2
*D49
 10
1647.958389721117
 20
-8137.24605812561
 30
0.0
 11
1740.731125200232
 21
-8137.24605812561
 31
0.0
 70
   160
 71
     5
 42
189.9999999999977
  3
STANDARD
100
AcDbAlignedDimension
 13
1837.958389721115
 23
-8053.91155167608
 33
0.0
 14
1647.958389721117
 24
-7998.635221341729
 34
0.0
 50
180.0
100
AcDbRotatedDimension
1001
ACAD
1000
DSTYLE
1002
{
1070
    40
1040
10.0
1070
    41
1040
3.0
1070
    42
1040
0.0
1070
    43
1040
7.0
1070
    44
1040
2.0
1070
    47
1040
20.0
1070
    48
1040
20.0
1070
    73
1070
     0
1070
    74
1070
     0
1070
   140
1040
2.5
1070
   141
1040
1.5
1070
   146
1040
0.75
1070
   147
1040
2.0
1070
   176
1070
   256
1070
   177
1070
   256
1070
   178
1070
     6
1070
   271
1070
     0
1070
   272
1070
     1
1070
   284
1070
     8
1070
   288
1070
     1
1070
   289
1070
     0
1070
   340
1005
AB35
1002
}
  0
DIMENSION
  5
F9DC
330
1F
100
AcDbEntity
  8
COTAS
100
AcDbDimension
  2
*D46
 10
1904.292896170642
 20
-7880.911551676082
 30
0.0
 11
1904.292896170644
 21
-7973.684287155198
 31
0.0
 70
   160
 71
     5
 42
189.9999999999972
  3
STANDARD
100
AcDbAlignedDimension
 13
1820.958389721114
 23
-8070.911551676081
 33
0.0
 14
1765.682059386764
 24
-7880.911551676082
 34
0.0
 50
90.0
100
AcDbRotatedDimension
1001
ACAD
1000
DSTYLE
1002
{
1070
    40
1040
10.0
1070
    41
1040
3.0
1070
    42
1040
0.0
1070
    43
1040
7.0
1070
    44
1040
2.0
1070
    47
1040
20.0
1070
    48
1040
20.0
1070
    73
1070
     0
1070
    74
1070
     0
1070
   140
1040
2.5
1070
   141
1040
1.5
1070
   146
1040
0.75
1070
   147
1040
2.0
1070
   176
1070
   256
1070
   177
1070
   256
1070
   178
1070
     6
1070
   271
1070
     0
1070
   272
1070
     1
1070
   284
1070
     8
1070
   288
1070
     1
1070
   289
1070
     0
1070
   340
1005
AB35
1002
}
  0
CIRCLE
  5
FB06
330
1F
100
AcDbEntity
  8
0
 62
     3
100
AcDbCircle
 10
1647.958389721116
 20
-7710.911551676078
 30
0.0
 40
25.00000000000003
  0
CIRCLE
  5
FB07
330
1F
100
AcDbEntity
  8
0
 62
     8
100
AcDbCircle
 10
1647.958389721116
 20
-7710.911551676078
 30
0.0
 40
15.00000000000001
  0
CIRCLE
  5
FB08
330
1F
100
AcDbEntity
  8
0
 62
     3
100
AcDbCircle
 10
1647.958389721118
 20
-7540.911551676079
 30
0.0
 40
25.00000000000003
  0
CIRCLE
  5
FB09
330
1F
100
AcDbEntity
  8
0
 62
     8
100
AcDbCircle
 10
1647.958389721118
 20
-7540.911551676079
 30
0.0
 40
15.00000000000001
  0
CIRCLE
  5
FB0A
330
1F
100
AcDbEntity
  8
0
 62
     3
100
AcDbCircle
 10
1517.958389721117
 20
-7625.911551676077
 30
0.0
 40
25.00000000000003
  0
CIRCLE
  5
FB0B
330
1F
100
AcDbEntity
  8
0
 62
     8
100
AcDbCircle
 10
1517.958389721117
 20
-7625.911551676077
 30
0.0
 40
15.00000000000001
  0
CIRCLE
  5
FB0C
330
1F
100
AcDbEntity
  8
0
 62
     3
100
AcDbCircle
 10
1517.958389721117
 20
-7796.488564560402
 30
0.0
 40
25.00000000000003
  0
CIRCLE
  5
FB0D
330
1F
100
AcDbEntity
  8
0
 62
     8
100
AcDbCircle
 10
1517.958389721117
 20
-7796.488564560402
 30
0.0
 40
15.00000000000001
  0
CIRCLE
  5
FB0E
330
1F
100
AcDbEntity
  8
0
 62
     3
100
AcDbCircle
 10
1387.958389721118
 20
-7710.911551676078
 30
0.0
 40
25.00000000000003
  0
CIRCLE
  5
FB0F
330
1F
100
AcDbEntity
  8
0
 62
     8
100
AcDbCircle
 10
1387.958389721118
 20
-7710.911551676078
 30
0.0
 40
15.00000000000001
  0
CIRCLE
  5
FB10
330
1F
100
AcDbEntity
  8
0
 62
     3
100
AcDbCircle
 10
1387.958389721116
 20
-7540.911551676079
 30
0.0
 40
25.00000000000003
  0
CIRCLE
  5
FB11
330
1F
100
AcDbEntity
  8
0
 62
     8
100
AcDbCircle
 10
1387.958389721116
 20
-7540.911551676079
 30
0.0
 40
15.00000000000001
  0
CIRCLE
  5
FB12
330
1F
100
AcDbEntity
  8
0
 62
     3
100
AcDbCircle
 10
1257.958389721118
 20
-7625.911551676077
 30
0.0
 40
25.00000000000003
  0
CIRCLE
  5
FB13
330
1F
100
AcDbEntity
  8
0
 62
     8
100
AcDbCircle
 10
1257.958389721118
 20
-7625.911551676077
 30
0.0
 40
15.00000000000001
  0
CIRCLE
  5
FB14
330
1F
100
AcDbEntity
  8
0
 62
     3
100
AcDbCircle
 10
1257.958389721118
 20
-7796.488564560402
 30
0.0
 40
25.00000000000003
  0
CIRCLE
  5
FB15
330
1F
100
AcDbEntity
  8
0
 62
     8
100
AcDbCircle
 10
1257.958389721118
 20
-7796.488564560402
 30
0.0
 40
15.00000000000001
  0
CIRCLE
  5
FB16
330
1F
100
AcDbEntity
  8
0
 62
     3
100
AcDbCircle
 10
1387.958389721118
 20
-7882.065577444727
 30
0.0
 40
25.00000000000003
  0
CIRCLE
  5
FB17
330
1F
100
AcDbEntity
  8
0
 62
     8
100
AcDbCircle
 10
1387.958389721118
 20
-7882.065577444727
 30
0.0
 40
15.00000000000001
  0
CIRCLE
  5
FB18
330
1F
100
AcDbEntity
  8
0
 62
     3
100
AcDbCircle
 10
1127.958389721118
 20
-7710.911551676078
 30
0.0
 40
25.00000000000003
  0
CIRCLE
  5
FB19
330
1F
100
AcDbEntity
  8
0
 62
     8
100
AcDbCircle
 10
1127.958389721118
 20
-7710.911551676078
 30
0.0
 40
15.00000000000001
  0
CIRCLE
  5
FB1A
330
1F
100
AcDbEntity
  8
0
 62
     3
100
AcDbCircle
 10
1127.95838972112
 20
-7540.911551676079
 30
0.0
 40
25.00000000000003
  0
CIRCLE
  5
FB1B
330
1F
100
AcDbEntity
  8
0
 62
     8
100
AcDbCircle
 10
1127.95838972112
 20
-7540.911551676079
 30
0.0
 40
15.00000000000001
  0
CIRCLE
  5
FB1C
330
1F
100
AcDbEntity
  8
0
 62
     3
100
AcDbCircle
 10
1127.958389721118
 20
-7882.065577444727
 30
0.0
 40
25.00000000000003
  0
CIRCLE
  5
FB1D
330
1F
100
AcDbEntity
  8
0
 62
     8
100
AcDbCircle
 10
1127.958389721118
 20
-7882.065577444727
 30
0.0
 40
15.00000000000001
  0
ARC
  5
FB29
330
1F
100
AcDbEntity
  8
0
100
AcDbCircle
 10
1005.748175381875
 20
-6950.249900055808
 30
0.0
 40
25.0
100
AcDbArc
 50
89.30925242173357
 51
147.2004195958461
  0
ARC
  5
FB2A
330
1F
100
AcDbEntity
  8
0
100
AcDbCircle
 10
1040.98869641486
 20
-6897.885539046559
 30
0.0
 40
15.0
100
AcDbArc
 50
188.0240326993887
 51
269.3321802122088
  0
HATCH
  5
FB7B
330
1F
100
AcDbEntity
  8
COTAS
 62
     8
100
AcDbHatch
 10
0.0
 20
0.0
 30
0.0
210
0.0
220
0.0
230
1.0
  2
SOLID
 70
     1
 71
     0
 91
        4
 92
        7
 72
     1
 73
     1
 93
       24
 10
939.1855407285534
 20
-6863.153702234296
 42
-0.4040262258335791
 10
948.1800581717234
 20
-6854.467797704668
 42
-0.0688868966795968
 10
991.6449625945555
 20
-6860.484674981707
 42
-0.2972254475634426
 10
1026.135552332204
 20
-6899.979365892282
 42
0.3704477782786062
 10
1040.813865561905
 20
-6912.88452015105
 42
0.0
 10
1590.934290979433
 20
-6919.296823929123
 42
-0.1470023633293743
 10
1601.896223721909
 20
-6922.810947461219
 42
0.0
 10
1614.790425120423
 20
-6931.672886558793
 42
-0.2470119756073052
 10
1616.958393935798
 20
-6935.793517501902
 42
0.0
 10
1616.958393935798
 20
-6939.449309100837
 42
0.0
 10
1603.180107980702
 20
-6939.449470866242
 42
0.0
 10
1593.817126855901
 20
-6933.014472223419
 42
0.1501988271945624
 10
1591.574705842459
 20
-6932.311044281295
 42
0.0
 10
1006.049563569508
 20
-6925.251716818614
 42
0.2581110128009198
 10
984.7339111173601
 20
-6936.707348692748
 42
-0.2520409538821176
 10
979.7549331110101
 20
-6939.456790254649
 42
0.0
 10
976.1658964698561
 20
-6939.456832392109
 42
-0.2334127963866452
 10
971.4262917483527
 20
-6937.057136365614
 42
0.2360679774997372
 10
968.226291748353
 20
-6935.457136365615
 42
0.0
 10
958.2751081481156
 20
-6935.457136365615
 42
0.2360679774997822
 10
955.0751081481157
 20
-6937.057136365614
 42
-0.2360679774997946
 10
950.2751081481155
 20
-6939.457136365614
 42
0.0
 10
943.9583897211141
 20
-6939.457136365614
 42
-0.4142135623730506
 10
937.958389721115
 20
-6933.457136365614
 42
0.0
 97
        0
 92
       22
 72
     1
 73
     1
 93
       13
 10
1020.583307251867
 20
-6912.329492478942
 42
-0.1195452853605748
 10
1016.23348456837
 20
-6901.375451151975
 42
0.2972268987843029
 10
988.9284060681287
 20
-6870.108620151892
 42
0.0604366946203615
 10
953.2280859762019
 20
-6864.552763717793
 42
0.4189683660479762
 10
949.0940811207902
 20
-6868.480688331693
 42
0.0
 10
948.1217849999744
 20
-6924.183495786981
 42
0.5628540451277575
 10
952.4111430857965
 20
-6926.996115940292
 42
-0.1116936710744534
 10
958.4366759080339
 20
-6925.633083701909
 42
0.0
 10
968.3878595082706
 20
-6925.633083701909
 42
-0.1513208613380917
 10
976.3012404192457
 20
-6928.084126928337
 42
0.3856390634775475
 10
978.9623593370965
 20
-6927.721580760665
 42
-0.2262053891476253
 10
1006.389324115093
 20
-6915.255281977369
 42
0.0
 10
1018.91425316691
 20
-6915.484646865374
 42
0.6148505125972751
 97
        0
 92
        7
 72
     1
 73
     1
 93
       24
 10
1694.020555720326
 20
-6922.810947461219
 42
-0.1468132643744069
 10
1704.967682722427
 20
-6919.297100544835
 42
0.0
 10
1734.686826948609
 20
-6918.730851456238
 42
0.3951082570700619
 10
1749.384783530487
 20
-6904.432564100503
 42
-0.3228286952430154
 10
1784.293167832993
 20
-6860.474397398435
 42
-0.0688868966795952
 10
1827.758072255823
 20
-6854.457520121396
 42
-0.4040262258321976
 10
1836.752589698992
 20
-6863.143424650981
 42
0.0
 10
1837.979740706431
 20
-6933.446858782223
 42
-0.4142135623791534
 10
1831.979740706436
 20
-6939.446858782343
 42
0.0
 10
1825.663022279432
 20
-6939.446858782343
 42
-0.2360679774996629
 10
1820.86302227943
 20
-6937.046858782342
 42
0.2360679774996802
 10
1817.66302227943
 20
-6935.446858782343
 42
0.0
 10
1807.711838679196
 20
-6935.446858782343
 42
0.2360679774997537
 10
1804.511838679194
 20
-6937.046858782342
 42
-0.2360679774996587
 10
1799.711838679194
 20
-6939.446858782343
 42
0.0
 10
1796.247642733674
 20
-6939.446858782343
 42
-0.1891553183296298
 10
1792.167538725031
 20
-6937.846034986893
 42
0.1933469091656201
 10
1774.76275497633
 20
-6931.179206037652
 42
0.0
 10
1704.289389202404
 20
-6932.319192444357
 42
0.147547920889695
 10
1702.088460315406
 20
-6933.022164458113
 42
0.0
 10
1692.738201354276
 20
-6939.448419400092
 42
0.0
 10
1678.958385506437
 20
-6939.448581183459
 42
0.0
 10
1678.958385506436
 20
-6935.793517501905
 42
-0.247011975607459
 10
1681.126354321812
 20
-6931.672886558793
 42
0.0
 97
        0
 92
       22
 72
     1
 73
     1
 93
       13
 10
1827.818172946516
 20
-6924.277916693816
 42
-0.5514186350081408
 10
1823.52698734175
 20
-6926.985838357019
 42
0.1116936710744177
 10
1817.501454519515
 20
-6925.622806118638
 42
0.0
 10
1807.550270919276
 20
-6925.622806118638
 42
0.1781770731645502
 10
1798.47452811722
 20
-6928.963026918724
 42
-0.3610995359871572
 10
1797.196839790368
 20
-6928.978678610966
 42
0.1760307821351894
 10
1774.601014824584
 20
-6921.180514117039
 42
0.0
 10
1754.281129099742
 20
-6921.509211253294
 42
-0.6438945391553909
 10
1753.50095983694
 20
-6919.864120191171
 42
0.1651517559037178
 10
1759.373920119936
 20
-6904.898557874424
 42
-0.3228286952430121
 10
1787.009724359419
 20
-6870.098342568621
 42
-0.0604366946203611
 10
1822.710044451345
 20
-6864.542486134522
 42
-0.4189683660480494
 10
1826.844049306757
 20
-6868.470410748424
 42
0.0
 97
        0
 75
     0
 76
     1
 47
1.491753669224397
 98
        4
 10
1026.350291029688
 20
-6918.05233378087
 10
1026.350291029688
 20
-6918.05233378087
 10
1742.658657957203
 20
-6927.002834319487
 10
1742.658657957203
 20
-6927.002834319487
  0
TEXT
  5
FC1D
330
1F
100
AcDbEntity
  8
tampon_distr._doc.
 62
   160
100
AcDbText
 10
3091.177591810624
 20
-5386.342943363705
 30
0.0
 40
22.0
  1
REV.
  7
caja_tdd
100
AcDbText
  0
MTEXT
  5
FC1E
102
{ACAD_XDICTIONARY
360
FF01
102
}
330
1F
100
AcDbEntity
  8
tampon_distr._doc.
 62
   160
100
AcDbMText
 10
3124.52205156165
 20
-5280.796193350537
 30
0.0
 40
30.0
 41
900.3002079206556
 71
     1
 72
     5
  1
DISTRIBUCI\U+00D3N DE DOCUMENTOS
  7
caja_tdd
 73
     1
 44
1.0
1001
ACAD
1000
MTEXTBEGIN
1070
    73
1070
     1
1070
    44
1040
1.0
1070
    74
1070
     0
1000
MTEXTEND
  0
LINE
  5
FC1F
330
1F
100
AcDbEntity
  8
tampon_distr._doc.
 62
   160
100
AcDbLine
 10
2890.794788476336
 20
-5712.035805919948
 30
0.0
 11
4060.794788476336
 21
-5712.035805919948
 31
0.0
  0
LINE
  5
FC20
330
1F
100
AcDbEntity
  8
tampon_distr._doc.
 62
   160
100
AcDbLine
 10
2890.794788476336
 20
-5637.035805919948
 30
0.0
 11
4060.794788476336
 21
-5637.035805919948
 31
0.0
  0
LINE
  5
FC21
330
1F
100
AcDbEntity
  8
tampon_distr._doc.
 62
   160
100
AcDbLine
 10
2890.794788476336
 20
-5562.035805919948
 30
0.0
 11
4060.794788476336
 21
-5562.035805919948
 31
0.0
  0
LINE
  5
FC22
330
1F
100
AcDbEntity
  8
tampon_distr._doc.
 62
   160
100
AcDbLine
 10
2890.794788476336
 20
-5487.035805919948
 30
0.0
 11
4060.794788476336
 21
-5487.035805919948
 31
0.0
  0
LINE
  5
FC23
330
1F
100
AcDbEntity
  8
tampon_distr._doc.
 62
   160
100
AcDbLine
 10
2890.794788476336
 20
-5412.035805919948
 30
0.0
 11
4060.794788476336
 21
-5412.035805919948
 31
0.0
  0
LINE
  5
FC24
330
1F
100
AcDbEntity
  8
tampon_distr._doc.
 62
   160
100
AcDbLine
 10
2890.794788476336
 20
-5337.035805919947
 30
0.0
 11
4060.794788476336
 21
-5337.035805919947
 31
0.0
  0
LINE
  5
FC25
330
1F
100
AcDbEntity
  8
tampon_distr._doc.
 62
   160
100
AcDbLine
 10
2890.794788476336
 20
-5262.035805919947
 30
0.0
 11
4060.794788476336
 21
-5262.035805919947
 31
0.0
  0
LINE
  5
FC26
330
1F
100
AcDbEntity
  8
tampon_distr._doc.
 62
   160
100
AcDbLine
 10
2890.794788476336
 20
-5787.035805919948
 30
0.0
 11
4060.794788476336
 21
-5787.035805919948
 31
0.0
  0
LINE
  5
FC27
330
1F
100
AcDbEntity
  8
tampon_distr._doc.
 62
   160
100
AcDbLine
 10
2890.794788476336
 20
-5787.035805919948
 30
0.0
 11
2890.794788476336
 21
-5262.035805919947
 31
0.0
  0
LINE
  5
FC28
330
1F
100
AcDbEntity
  8
tampon_distr._doc.
 62
   160
100
AcDbLine
 10
3080.794788476336
 20
-5787.035805919948
 30
0.0
 11
3080.794788476336
 21
-5337.035805919947
 31
0.0
  0
TEXT
  5
FC29
330
1F
100
AcDbEntity
  8
tampon_distr._doc.
 62
   160
100
AcDbText
 10
2900.373209312378
 20
-5386.342943363705
 30
0.0
 40
22.0
  1
DOCUMENTO
 41
0.85
  7
caja_tdd
100
AcDbText
  0
LINE
  5
FC2A
330
1F
100
AcDbEntity
  8
tampon_distr._doc.
 62
   160
100
AcDbLine
 10
4060.794788476336
 20
-5787.035805919948
 30
0.0
 11
4060.794788476336
 21
-5262.035805919947
 31
0.0
  0
LINE
  5
FC2B
330
1F
100
AcDbEntity
  8
tampon_distr._doc.
 62
   160
100
AcDbLine
 10
3915.794788476336
 20
-5337.035805919947
 30
0.0
 11
3915.794788476336
 21
-5787.035805919948
 31
0.0
  0
LINE
  5
FC2C
330
1F
100
AcDbEntity
  8
tampon_distr._doc.
 62
   160
100
AcDbLine
 10
3759.679968559352
 20
-5787.035805919948
 30
0.0
 11
3759.679968559352
 21
-5337.035805919947
 31
0.0
  0
LINE
  5
FC2D
330
1F
100
AcDbEntity
  8
tampon_distr._doc.
 62
   160
100
AcDbLine
 10
3603.565148642369
 20
-5787.035805919948
 30
0.0
 11
3603.565148642369
 21
-5337.035805919947
 31
0.0
  0
LINE
  5
FC2E
330
1F
100
AcDbEntity
  8
tampon_distr._doc.
 62
   160
100
AcDbLine
 10
3170.794788476337
 20
-5787.035805919948
 30
0.0
 11
3170.794788476337
 21
-5337.035805919947
 31
0.0
  0
TEXT
  5
FC2F
330
1F
100
AcDbEntity
  8
tampon_distr._doc.
 62
   160
100
AcDbText
 10
3631.165974101672
 20
-5371.529367936108
 30
0.0
 40
22.0
  1
FECHA
  7
caja_tdd
100
AcDbText
  0
TEXT
  5
FC30
330
1F
100
AcDbEntity
  8
tampon_distr._doc.
 62
   160
100
AcDbText
 10
3607.035416415451
 20
-5403.216660834258
 30
0.0
 40
22.0
  1
ENTREGA
  7
caja_tdd
100
AcDbText
  0
TEXT
  5
FC31
330
1F
100
AcDbEntity
  8
tampon_distr._doc.
 62
   160
100
AcDbText
 10
3608.736821931228
 20
-5471.69544575181
 30
0.0
 40
45.0
  1
26.07.07
 41
0.6
  7
MANO
100
AcDbText
  0
TEXT
  5
FC32
330
1F
100
AcDbEntity
  8
tampon_distr._doc.
 62
   160
100
AcDbText
 10
3182.288080403954
 20
-5471.69544575181
 30
0.0
 40
51.09471091417503
  1
Marketing
 41
0.9
  7
MANO
100
AcDbText
  0
TEXT
  5
FC33
330
1F
100
AcDbEntity
  8
tampon_distr._doc.
 62
   160
100
AcDbText
 10
3306.064058051993
 20
-5386.342943363705
 30
0.0
 40
22.0
  1
DESTINO
  7
caja_tdd
100
AcDbText
  0
TEXT
  5
FC34
330
1F
100
AcDbEntity
  8
tampon_distr._doc.
 62
   160
100
AcDbText
 10
3787.280794018656
 20
-5371.529367936108
 30
0.0
 40
22.0
  1
FECHA
  7
caja_tdd
100
AcDbText
  0
TEXT
  5
FC35
330
1F
100
AcDbEntity
  8
tampon_distr._doc.
 62
   160
100
AcDbText
 10
3792.004104028014
 20
-5403.216660834258
 30
0.0
 40
22.0
  1
VIGOR
  7
caja_tdd
100
AcDbText
  0
TEXT
  5
FC36
330
1F
100
AcDbEntity
  8
tampon_distr._doc.
 62
   160
100
AcDbText
 10
3928.4938267208
 20
-5386.342943363705
 30
0.0
 40
22.0
  1
RECIBI
  7
caja_tdd
100
AcDbText
  0
TEXT
  5
FC37
330
1F
100
AcDbEntity
  8
tampon_distr._doc.
 62
   160
100
AcDbText
 10
991.1775918106231
 20
-5386.342943363705
 30
0.0
 40
22.0
  1
REV.
  7
caja_tdd
100
AcDbText
  0
MTEXT
  5
FC38
102
{ACAD_XDICTIONARY
360
FF03
102
}
330
1F
100
AcDbEntity
  8
tampon_distr._doc.
 62
   160
100
AcDbMText
 10
1024.522051561649
 20
-5280.796193350537
 30
0.0
 40
30.0
 41
900.3002079206556
 71
     1
 72
     5
  1
DISTRIBUCI\U+00D3N DE DOCUMENTOS
  7
caja_tdd
 73
     1
 44
1.0
1001
ACAD
1000
MTEXTBEGIN
1070
    73
1070
     1
1070
    44
1040
1.0
1070
    74
1070
     0
1000
MTEXTEND
  0
LINE
  5
FC39
330
1F
100
AcDbEntity
  8
tampon_distr._doc.
 62
   160
100
AcDbLine
 10
790.7947884763362
 20
-5712.035805919948
 30
0.0
 11
1960.794788476336
 21
-5712.035805919948
 31
0.0
  0
LINE
  5
FC3A
330
1F
100
AcDbEntity
  8
tampon_distr._doc.
 62
   160
100
AcDbLine
 10
790.7947884763362
 20
-5637.035805919948
 30
0.0
 11
1960.794788476336
 21
-5637.035805919948
 31
0.0
  0
LINE
  5
FC3B
330
1F
100
AcDbEntity
  8
tampon_distr._doc.
 62
   160
100
AcDbLine
 10
790.7947884763362
 20
-5562.035805919948
 30
0.0
 11
1960.794788476336
 21
-5562.035805919948
 31
0.0
  0
LINE
  5
FC3C
330
1F
100
AcDbEntity
  8
tampon_distr._doc.
 62
   160
100
AcDbLine
 10
790.7947884763362
 20
-5487.035805919948
 30
0.0
 11
1960.794788476336
 21
-5487.035805919948
 31
0.0
  0
LINE
  5
FC3D
330
1F
100
AcDbEntity
  8
tampon_distr._doc.
 62
   160
100
AcDbLine
 10
790.7947884763362
 20
-5412.035805919948
 30
0.0
 11
1960.794788476336
 21
-5412.035805919948
 31
0.0
  0
LINE
  5
FC3E
330
1F
100
AcDbEntity
  8
tampon_distr._doc.
 62
   160
100
AcDbLine
 10
790.7947884763362
 20
-5337.035805919947
 30
0.0
 11
1960.794788476336
 21
-5337.035805919947
 31
0.0
  0
LINE
  5
FC3F
330
1F
100
AcDbEntity
  8
tampon_distr._doc.
 62
   160
100
AcDbLine
 10
790.7947884763362
 20
-5262.035805919947
 30
0.0
 11
1960.794788476336
 21
-5262.035805919947
 31
0.0
  0
LINE
  5
FC40
330
1F
100
AcDbEntity
  8
tampon_distr._doc.
 62
   160
100
AcDbLine
 10
790.7947884763362
 20
-5787.035805919948
 30
0.0
 11
1960.794788476336
 21
-5787.035805919948
 31
0.0
  0
LINE
  5
FC41
330
1F
100
AcDbEntity
  8
tampon_distr._doc.
 62
   160
100
AcDbLine
 10
790.7947884763362
 20
-5787.035805919948
 30
0.0
 11
790.7947884763362
 21
-5262.035805919947
 31
0.0
  0
LINE
  5
FC42
330
1F
100
AcDbEntity
  8
tampon_distr._doc.
 62
   160
100
AcDbLine
 10
980.7947884763361
 20
-5787.035805919948
 30
0.0
 11
980.7947884763361
 21
-5337.035805919947
 31
0.0
  0
TEXT
  5
FC43
330
1F
100
AcDbEntity
  8
tampon_distr._doc.
 62
   160
100
AcDbText
 10
800.3732093123781
 20
-5386.342943363705
 30
0.0
 40
22.0
  1
DOCUMENTO
 41
0.85
  7
caja_tdd
100
AcDbText
  0
LINE
  5
FC44
330
1F
100
AcDbEntity
  8
tampon_distr._doc.
 62
   160
100
AcDbLine
 10
1960.794788476336
 20
-5787.035805919948
 30
0.0
 11
1960.794788476336
 21
-5262.035805919947
 31
0.0
  0
LINE
  5
FC45
330
1F
100
AcDbEntity
  8
tampon_distr._doc.
 62
   160
100
AcDbLine
 10
1815.794788476336
 20
-5337.035805919947
 30
0.0
 11
1815.794788476336
 21
-5787.035805919948
 31
0.0
  0
LINE
  5
FC46
330
1F
100
AcDbEntity
  8
tampon_distr._doc.
 62
   160
100
AcDbLine
 10
1659.679968559352
 20
-5787.035805919948
 30
0.0
 11
1659.679968559352
 21
-5337.035805919947
 31
0.0
  0
LINE
  5
FC47
330
1F
100
AcDbEntity
  8
tampon_distr._doc.
 62
   160
100
AcDbLine
 10
1503.565148642368
 20
-5787.035805919948
 30
0.0
 11
1503.565148642368
 21
-5337.035805919947
 31
0.0
  0
LINE
  5
FC48
330
1F
100
AcDbEntity
  8
tampon_distr._doc.
 62
   160
100
AcDbLine
 10
1070.794788476336
 20
-5787.035805919948
 30
0.0
 11
1070.794788476336
 21
-5337.035805919947
 31
0.0
  0
TEXT
  5
FC49
330
1F
100
AcDbEntity
  8
tampon_distr._doc.
 62
   160
100
AcDbText
 10
1531.165974101672
 20
-5371.529367936108
 30
0.0
 40
22.0
  1
FECHA
  7
caja_tdd
100
AcDbText
  0
TEXT
  5
FC4A
330
1F
100
AcDbEntity
  8
tampon_distr._doc.
 62
   160
100
AcDbText
 10
1507.03541641545
 20
-5403.216660834258
 30
0.0
 40
22.0
  1
ENTREGA
  7
caja_tdd
100
AcDbText
  0
TEXT
  5
FC4B
330
1F
100
AcDbEntity
  8
tampon_distr._doc.
 62
   160
100
AcDbText
 10
1508.736821931228
 20
-5471.69544575181
 30
0.0
 40
45.0
  1
26.07.07
 41
0.6
  7
MANO
100
AcDbText
  0
TEXT
  5
FC4C
330
1F
100
AcDbEntity
  8
tampon_distr._doc.
 62
   160
100
AcDbText
 10
1082.288080403954
 20
-5471.69544575181
 30
0.0
 40
51.09471091417503
  1
Marketing
 41
0.9
  7
MANO
100
AcDbText
  0
TEXT
  5
FC4D
330
1F
100
AcDbEntity
  8
tampon_distr._doc.
 62
   160
100
AcDbText
 10
1206.064058051992
 20
-5386.342943363705
 30
0.0
 40
22.0
  1
DESTINO
  7
caja_tdd
100
AcDbText
  0
TEXT
  5
FC4E
330
1F
100
AcDbEntity
  8
tampon_distr._doc.
 62
   160
100
AcDbText
 10
1687.280794018656
 20
-5371.529367936108
 30
0.0
 40
22.0
  1
FECHA
  7
caja_tdd
100
AcDbText
  0
TEXT
  5
FC4F
330
1F
100
AcDbEntity
  8
tampon_distr._doc.
 62
   160
100
AcDbText
 10
1692.004104028014
 20
-5403.216660834258
 30
0.0
 40
22.0
  1
VIGOR
  7
caja_tdd
100
AcDbText
  0
TEXT
  5
FC50
330
1F
100
AcDbEntity
  8
tampon_distr._doc.
 62
   160
100
AcDbText
 10
1828.4938267208
 20
-5386.342943363705
 30
0.0
 40
22.0
  1
RECIBI
  7
caja_tdd
100
AcDbText
  0
TEXT
  5
FC51
330
1F
100
AcDbEntity
  8
tampon_distr._doc.
 62
   160
100
AcDbText
 10
991.1775918106231
 20
-8356.342943363706
 30
0.0
 40
22.0
  1
REV.
  7
caja_tdd
100
AcDbText
  0
MTEXT
  5
FC52
102
{ACAD_XDICTIONARY
360
FF05
102
}
330
1F
100
AcDbEntity
  8
tampon_distr._doc.
 62
   160
100
AcDbMText
 10
1024.522051561649
 20
-8250.79619335054
 30
0.0
 40
30.0
 41
900.3002079206556
 71
     1
 72
     5
  1
DISTRIBUCI\U+00D3N DE DOCUMENTOS
  7
caja_tdd
 73
     1
 44
1.0
1001
ACAD
1000
MTEXTBEGIN
1070
    73
1070
     1
1070
    44
1040
1.0
1070
    74
1070
     0
1000
MTEXTEND
  0
LINE
  5
FC53
330
1F
100
AcDbEntity
  8
tampon_distr._doc.
 62
   160
100
AcDbLine
 10
790.7947884763362
 20
-8682.03580591995
 30
0.0
 11
1960.794788476336
 21
-8682.03580591995
 31
0.0
  0
LINE
  5
FC54
330
1F
100
AcDbEntity
  8
tampon_distr._doc.
 62
   160
100
AcDbLine
 10
790.7947884763362
 20
-8607.03580591995
 30
0.0
 11
1960.794788476336
 21
-8607.03580591995
 31
0.0
  0
LINE
  5
FC55
330
1F
100
AcDbEntity
  8
tampon_distr._doc.
 62
   160
100
AcDbLine
 10
790.7947884763362
 20
-8532.035805919951
 30
0.0
 11
1960.794788476336
 21
-8532.035805919951
 31
0.0
  0
LINE
  5
FC56
330
1F
100
AcDbEntity
  8
tampon_distr._doc.
 62
   160
100
AcDbLine
 10
790.7947884763362
 20
-8457.03580591995
 30
0.0
 11
1960.794788476336
 21
-8457.03580591995
 31
0.0
  0
LINE
  5
FC57
330
1F
100
AcDbEntity
  8
tampon_distr._doc.
 62
   160
100
AcDbLine
 10
790.7947884763362
 20
-8382.035805919951
 30
0.0
 11
1960.794788476336
 21
-8382.035805919951
 31
0.0
  0
LINE
  5
FC58
330
1F
100
AcDbEntity
  8
tampon_distr._doc.
 62
   160
100
AcDbLine
 10
790.7947884763362
 20
-8307.035805919948
 30
0.0
 11
1960.794788476336
 21
-8307.035805919948
 31
0.0
  0
LINE
  5
FC59
330
1F
100
AcDbEntity
  8
tampon_distr._doc.
 62
   160
100
AcDbLine
 10
790.7947884763362
 20
-8232.035805919947
 30
0.0
 11
1960.794788476336
 21
-8232.035805919947
 31
0.0
  0
LINE
  5
FC5A
330
1F
100
AcDbEntity
  8
tampon_distr._doc.
 62
   160
100
AcDbLine
 10
790.7947884763362
 20
-8757.035805919951
 30
0.0
 11
1960.794788476336
 21
-8757.035805919951
 31
0.0
  0
LINE
  5
FC5B
330
1F
100
AcDbEntity
  8
tampon_distr._doc.
 62
   160
100
AcDbLine
 10
790.7947884763362
 20
-8757.035805919951
 30
0.0
 11
790.7947884763362
 21
-8232.035805919947
 31
0.0
  0
LINE
  5
FC5C
330
1F
100
AcDbEntity
  8
tampon_distr._doc.
 62
   160
100
AcDbLine
 10
980.7947884763361
 20
-8757.035805919951
 30
0.0
 11
980.7947884763361
 21
-8307.035805919948
 31
0.0
  0
TEXT
  5
FC5D
330
1F
100
AcDbEntity
  8
tampon_distr._doc.
 62
   160
100
AcDbText
 10
800.3732093123781
 20
-8356.342943363706
 30
0.0
 40
22.0
  1
DOCUMENTO
 41
0.85
  7
caja_tdd
100
AcDbText
  0
LINE
  5
FC5E
330
1F
100
AcDbEntity
  8
tampon_distr._doc.
 62
   160
100
AcDbLine
 10
1960.794788476336
 20
-8757.035805919951
 30
0.0
 11
1960.794788476336
 21
-8232.035805919947
 31
0.0
  0
LINE
  5
FC5F
330
1F
100
AcDbEntity
  8
tampon_distr._doc.
 62
   160
100
AcDbLine
 10
1815.794788476336
 20
-8307.035805919948
 30
0.0
 11
1815.794788476336
 21
-8757.035805919951
 31
0.0
  0
LINE
  5
FC60
330
1F
100
AcDbEntity
  8
tampon_distr._doc.
 62
   160
100
AcDbLine
 10
1659.679968559352
 20
-8757.035805919951
 30
0.0
 11
1659.679968559352
 21
-8307.035805919948
 31
0.0
  0
LINE
  5
FC61
330
1F
100
AcDbEntity
  8
tampon_distr._doc.
 62
   160
100
AcDbLine
 10
1503.565148642368
 20
-8757.035805919951
 30
0.0
 11
1503.565148642368
 21
-8307.035805919948
 31
0.0
  0
LINE
  5
FC62
330
1F
100
AcDbEntity
  8
tampon_distr._doc.
 62
   160
100
AcDbLine
 10
1070.794788476336
 20
-8757.035805919951
 30
0.0
 11
1070.794788476336
 21
-8307.035805919948
 31
0.0
  0
TEXT
  5
FC63
330
1F
100
AcDbEntity
  8
tampon_distr._doc.
 62
   160
100
AcDbText
 10
1531.165974101672
 20
-8341.529367936109
 30
0.0
 40
22.0
  1
FECHA
  7
caja_tdd
100
AcDbText
  0
TEXT
  5
FC64
330
1F
100
AcDbEntity
  8
tampon_distr._doc.
 62
   160
100
AcDbText
 10
1507.03541641545
 20
-8373.216660834259
 30
0.0
 40
22.0
  1
ENTREGA
  7
caja_tdd
100
AcDbText
  0
TEXT
  5
FC65
330
1F
100
AcDbEntity
  8
tampon_distr._doc.
 62
   160
100
AcDbText
 10
1508.736821931228
 20
-8441.695445751811
 30
0.0
 40
45.0
  1
26.07.07
 41
0.6
  7
MANO
100
AcDbText
  0
TEXT
  5
FC66
330
1F
100
AcDbEntity
  8
tampon_distr._doc.
 62
   160
100
AcDbText
 10
1082.288080403954
 20
-8441.695445751811
 30
0.0
 40
51.09471091417503
  1
Marketing
 41
0.9
  7
MANO
100
AcDbText
  0
TEXT
  5
FC67
330
1F
100
AcDbEntity
  8
tampon_distr._doc.
 62
   160
100
AcDbText
 10
1206.064058051992
 20
-8356.342943363706
 30
0.0
 40
22.0
  1
DESTINO
  7
caja_tdd
100
AcDbText
  0
TEXT
  5
FC68
330
1F
100
AcDbEntity
  8
tampon_distr._doc.
 62
   160
100
AcDbText
 10
1687.280794018656
 20
-8341.529367936109
 30
0.0
 40
22.0
  1
FECHA
  7
caja_tdd
100
AcDbText
  0
TEXT
  5
FC69
330
1F
100
AcDbEntity
  8
tampon_distr._doc.
 62
   160
100
AcDbText
 10
1692.004104028014
 20
-8373.216660834259
 30
0.0
 40
22.0
  1
VIGOR
  7
caja_tdd
100
AcDbText
  0
TEXT
  5
FC6A
330
1F
100
AcDbEntity
  8
tampon_distr._doc.
 62
   160
100
AcDbText
 10
1828.4938267208
 20
-8356.342943363706
 30
0.0
 40
22.0
  1
RECIBI
  7
caja_tdd
100
AcDbText
  0
TEXT
  5
FC6B
330
1F
100
AcDbEntity
  8
tampon_distr._doc.
 62
   160
100
AcDbText
 10
3091.177591810624
 20
-8356.342943363706
 30
0.0
 40
22.0
  1
REV.
  7
caja_tdd
100
AcDbText
  0
MTEXT
  5
FC6C
102
{ACAD_XDICTIONARY
360
FF07
102
}
330
1F
100
AcDbEntity
  8
tampon_distr._doc.
 62
   160
100
AcDbMText
 10
3124.52205156165
 20
-8250.79619335054
 30
0.0
 40
30.0
 41
900.3002079206556
 71
     1
 72
     5
  1
DISTRIBUCI\U+00D3N DE DOCUMENTOS
  7
caja_tdd
 73
     1
 44
1.0
1001
ACAD
1000
MTEXTBEGIN
1070
    73
1070
     1
1070
    44
1040
1.0
1070
    74
1070
     0
1000
MTEXTEND
  0
LINE
  5
FC6D
330
1F
100
AcDbEntity
  8
tampon_distr._doc.
 62
   160
100
AcDbLine
 10
2890.794788476336
 20
-8682.03580591995
 30
0.0
 11
4060.794788476336
 21
-8682.03580591995
 31
0.0
  0
LINE
  5
FC6E
330
1F
100
AcDbEntity
  8
tampon_distr._doc.
 62
   160
100
AcDbLine
 10
2890.794788476336
 20
-8607.03580591995
 30
0.0
 11
4060.794788476336
 21
-8607.03580591995
 31
0.0
  0
LINE
  5
FC6F
330
1F
100
AcDbEntity
  8
tampon_distr._doc.
 62
   160
100
AcDbLine
 10
2890.794788476336
 20
-8532.035805919951
 30
0.0
 11
4060.794788476336
 21
-8532.035805919951
 31
0.0
  0
LINE
  5
FC70
330
1F
100
AcDbEntity
  8
tampon_distr._doc.
 62
   160
100
AcDbLine
 10
2890.794788476336
 20
-8457.03580591995
 30
0.0
 11
4060.794788476336
 21
-8457.03580591995
 31
0.0
  0
LINE
  5
FC71
330
1F
100
AcDbEntity
  8
tampon_distr._doc.
 62
   160
100
AcDbLine
 10
2890.794788476336
 20
-8382.035805919951
 30
0.0
 11
4060.794788476336
 21
-8382.035805919951
 31
0.0
  0
LINE
  5
FC72
330
1F
100
AcDbEntity
  8
tampon_distr._doc.
 62
   160
100
AcDbLine
 10
2890.794788476336
 20
-8307.035805919948
 30
0.0
 11
4060.794788476336
 21
-8307.035805919948
 31
0.0
  0
LINE
  5
FC73
330
1F
100
AcDbEntity
  8
tampon_distr._doc.
 62
   160
100
AcDbLine
 10
2890.794788476336
 20
-8232.035805919947
 30
0.0
 11
4060.794788476336
 21
-8232.035805919947
 31
0.0
  0
LINE
  5
FC74
330
1F
100
AcDbEntity
  8
tampon_distr._doc.
 62
   160
100
AcDbLine
 10
2890.794788476336
 20
-8757.035805919951
 30
0.0
 11
4060.794788476336
 21
-8757.035805919951
 31
0.0
  0
LINE
  5
FC75
330
1F
100
AcDbEntity
  8
tampon_distr._doc.
 62
   160
100
AcDbLine
 10
2890.794788476336
 20
-8757.035805919951
 30
0.0
 11
2890.794788476336
 21
-8232.035805919947
 31
0.0
  0
LINE
  5
FC76
330
1F
100
AcDbEntity
  8
tampon_distr._doc.
 62
   160
100
AcDbLine
 10
3080.794788476336
 20
-8757.035805919951
 30
0.0
 11
3080.794788476336
 21
-8307.035805919948
 31
0.0
  0
TEXT
  5
FC77
330
1F
100
AcDbEntity
  8
tampon_distr._doc.
 62
   160
100
AcDbText
 10
2900.373209312378
 20
-8356.342943363706
 30
0.0
 40
22.0
  1
DOCUMENTO
 41
0.85
  7
caja_tdd
100
AcDbText
  0
LINE
  5
FC78
330
1F
100
AcDbEntity
  8
tampon_distr._doc.
 62
   160
100
AcDbLine
 10
4060.794788476336
 20
-8757.035805919951
 30
0.0
 11
4060.794788476336
 21
-8232.035805919947
 31
0.0
  0
LINE
  5
FC79
330
1F
100
AcDbEntity
  8
tampon_distr._doc.
 62
   160
100
AcDbLine
 10
3915.794788476336
 20
-8307.035805919948
 30
0.0
 11
3915.794788476336
 21
-8757.035805919951
 31
0.0
  0
LINE
  5
FC7A
330
1F
100
AcDbEntity
  8
tampon_distr._doc.
 62
   160
100
AcDbLine
 10
3759.679968559352
 20
-8757.035805919951
 30
0.0
 11
3759.679968559352
 21
-8307.035805919948
 31
0.0
  0
LINE
  5
FC7B
330
1F
100
AcDbEntity
  8
tampon_distr._doc.
 62
   160
100
AcDbLine
 10
3603.565148642369
 20
-8757.035805919951
 30
0.0
 11
3603.565148642369
 21
-8307.035805919948
 31
0.0
  0
LINE
  5
FC7C
330
1F
100
AcDbEntity
  8
tampon_distr._doc.
 62
   160
100
AcDbLine
 10
3170.794788476337
 20
-8757.035805919951
 30
0.0
 11
3170.794788476337
 21
-8307.035805919948
 31
0.0
  0
TEXT
  5
FC7D
330
1F
100
AcDbEntity
  8
tampon_distr._doc.
 62
   160
100
AcDbText
 10
3631.165974101672
 20
-8341.529367936109
 30
0.0
 40
22.0
  1
FECHA
  7
caja_tdd
100
AcDbText
  0
TEXT
  5
FC7E
330
1F
100
AcDbEntity
  8
tampon_distr._doc.
 62
   160
100
AcDbText
 10
3607.035416415451
 20
-8373.216660834259
 30
0.0
 40
22.0
  1
ENTREGA
  7
caja_tdd
100
AcDbText
  0
TEXT
  5
FC7F
330
1F
100
AcDbEntity
  8
tampon_distr._doc.
 62
   160
100
AcDbText
 10
3608.736821931228
 20
-8441.695445751811
 30
0.0
 40
45.0
  1
26.07.07
 41
0.6
  7
MANO
100
AcDbText
  0
TEXT
  5
FC80
330
1F
100
AcDbEntity
  8
tampon_distr._doc.
 62
   160
100
AcDbText
 10
3182.288080403954
 20
-8441.695445751811
 30
0.0
 40
51.09471091417503
  1
Marketing
 41
0.9
  7
MANO
100
AcDbText
  0
TEXT
  5
FC81
330
1F
100
AcDbEntity
  8
tampon_distr._doc.
 62
   160
100
AcDbText
 10
3306.064058051993
 20
-8356.342943363706
 30
0.0
 40
22.0
  1
DESTINO
  7
caja_tdd
100
AcDbText
  0
TEXT
  5
FC82
330
1F
100
AcDbEntity
  8
tampon_distr._doc.
 62
   160
100
AcDbText
 10
3787.280794018656
 20
-8341.529367936109
 30
0.0
 40
22.0
  1
FECHA
  7
caja_tdd
100
AcDbText
  0
TEXT
  5
FC83
330
1F
100
AcDbEntity
  8
tampon_distr._doc.
 62
   160
100
AcDbText
 10
3792.004104028014
 20
-8373.216660834259
 30
0.0
 40
22.0
  1
VIGOR
  7
caja_tdd
100
AcDbText
  0
TEXT
  5
FC84
330
1F
100
AcDbEntity
  8
tampon_distr._doc.
 62
   160
100
AcDbText
 10
3928.4938267208
 20
-8356.342943363706
 30
0.0
 40
22.0
  1
RECIBI
  7
caja_tdd
100
AcDbText
  0
LINE
  5
FDEB
330
1F
100
AcDbEntity
  8
0
100
AcDbLine
 10
854.9583897211205
 20
-7350.911551676079
 30
0.0
 11
1920.958389721113
 21
-7350.911551676079
 31
0.0
  0
HATCH
  5
FE1C
330
1F
100
AcDbEntity
  8
0
 62
     8
100
AcDbHatch
 10
0.0
 20
0.0
 30
0.0
210
0.0
220
0.0
230
1.0
  2
ANSI31
 70
     0
 71
     0
 91
        1
 92
        7
 72
     0
 73
     1
 93
        4
 10
1920.958389721113
 20
-7275.911551676077
 10
854.9583897211205
 20
-7275.911551676077
 10
854.9583897211206
 20
-7350.91155167608
 10
1920.958389721114
 20
-7350.91155167608
 97
        0
 75
     0
 76
     1
 52
180.0
 41
8.0
 77
     0
 78
     1
 53
225.0
 43
0.0
 44
0.0
 45
17.9605122421383
 46
-17.96051224213831
 79
     0
 47
2.544291894670425
 98
        1
 10
1801.904743431572
 20
-7301.597721994643
  0
ENDSEC
  0
SECTION
  2
OBJECTS
  0
DICTIONARY
  5
C
330
0
100
AcDbDictionary
281
     1
  3
ACAD_COLOR
350
E600
  3
ACAD_GROUP
350
D
  3
ACAD_IMAGE_DICT
350
7EAD
  3
ACAD_LAYOUT
350
1A
  3
ACAD_MATERIAL
350
E5FF
  3
ACAD_MLINESTYLE
350
17
  3
ACAD_PLOTSETTINGS
350
19
  3
ACAD_PLOTSTYLENAME
350
E
  3
ACAD_TABLESTYLE
350
EBAA
  3
ACAD_VISUALSTYLE
350
FED6
  3
AcadDim
350
1E03
  3
AcDbVariableDictionary
350
2C
  3
ASE_INDEX_DICTIONARY
350
FEED
  3
DWGPROPS
350
FEF0
  0
DICTIONARY
  5
C0CF
330
1F
100
AcDbDictionary
280
     1
281
     1
  3
ACAD_LAYOUTSELFREF
360
E51E
  3
ACAD_SORTENTS
360
C0D0
  0
DICTIONARY
  5
D373
330
1B
100
AcDbDictionary
280
     1
281
     1
  3
ACAD_LAYOUTSELFREF
360
E51D
  0
DICTIONARY
  5
D375
330
23
100
AcDbDictionary
280
     1
281
     1
  3
ACAD_LAYOUTSELFREF
360
E51F
  0
DICTIONARY
  5
FEF7
330
B512
100
AcDbDictionary
280
     1
281
     1
  3
ACAD_MTEXT_RT
360
FEF8
  0
DICTIONARY
  5
FEF9
330
B60F
100
AcDbDictionary
280
     1
281
     1
  3
ACAD_MTEXT_RT
360
FEFA
  0
DICTIONARY
  5
FEFB
330
BD09
100
AcDbDictionary
280
     1
281
     1
  3
ACAD_MTEXT_RT
360
FEFC
  0
DICTIONARY
  5
FEFD
330
CFCC
100
AcDbDictionary
280
     1
281
     1
  3
ACAD_MTEXT_RT
360
FEFE
  0
DICTIONARY
  5
F9DA
330
F9D9
100
AcDbDictionary
280
     1
281
     1
  3
ACAD_DIMASSOC
360
F9DB
  0
DICTIONARY
  5
FF01
330
FC1E
100
AcDbDictionary
280
     1
281
     1
  3
ACAD_MTEXT_RT
360
FF02
  0
DICTIONARY
  5
FF03
330
FC38
100
AcDbDictionary
280
     1
281
     1
  3
ACAD_MTEXT_RT
360
FF04
  0
DICTIONARY
  5
FF05
330
FC52
100
AcDbDictionary
280
     1
281
     1
  3
ACAD_MTEXT_RT
360
FF06
  0
DICTIONARY
  5
FF07
330
FC6C
100
AcDbDictionary
280
     1
281
     1
  3
ACAD_MTEXT_RT
360
FF08
  0
DICTIONARY
  5
E600
102
{ACAD_REACTORS
330
C
102
}
330
C
100
AcDbDictionary
281
     1
  0
DICTIONARY
  5
D
102
{ACAD_REACTORS
330
C
102
}
330
C
100
AcDbDictionary
281
     1
  0
DICTIONARY
  5
7EAD
102
{ACAD_REACTORS
330
C
102
}
330
C
100
AcDbDictionary
281
     1
  3
B_MARINA
350
7EAE
  3
B_MARTA
350
7EAF
  3
B_NELIA
350
7EB0
  3
B_ROMANTICA
350
7EB1
  3
B_TERESA
350
7EB2
  0
DICTIONARY
  5
1A
102
{ACAD_REACTORS
330
C
102
}
330
C
100
AcDbDictionary
281
     1
  3
Layout1
350
1E
  3
Layout2
350
26
  3
Model
350
22
  0
DICTIONARY
  5
E5FF
102
{ACAD_REACTORS
330
C
102
}
330
C
100
AcDbDictionary
281
     1
  3
ByBlock
350
FED4
  3
ByLayer
350
FED3
  3
Global
350
FED5
  0
DICTIONARY
  5
17
102
{ACAD_REACTORS
330
C
102
}
330
C
100
AcDbDictionary
281
     1
  3
Standard
350
18
  0
DICTIONARY
  5
19
102
{ACAD_REACTORS
330
C
102
}
330
C
100
AcDbDictionary
281
     1
  0
ACDBDICTIONARYWDFLT
  5
E
102
{ACAD_REACTORS
330
C
102
}
330
C
100
AcDbDictionary
281
     1
  3
Normal
350
F
100
AcDbDictionaryWithDefault
340
F
  0
DICTIONARY
  5
EBAA
102
{ACAD_REACTORS
330
C
102
}
330
C
100
AcDbDictionary
281
     1
  3
Standard
350
EBAB
  0
DICTIONARY
  5
FED6
102
{ACAD_REACTORS
330
C
102
}
330
C
100
AcDbDictionary
281
     1
  3
2dWireframe
350
FEDC
  3
3D Hidden
350
FEDE
  3
3dWireframe
350
FEDD
  3
Basic
350
FEDB
  3
Brighten
350
FEE2
  3
ColorChange
350
FEE6
  3
Conceptual
350
FEDF
  3
Dim
350
FEE1
  3
Facepattern
350
FEE5
  3
Flat
350
FED7
  3
FlatWithEdges
350
FED8
  3
Gouraud
350
FED9
  3
GouraudWithEdges
350
FEDA
  3
Linepattern
350
FEE4
  3
Realistic
350
FEE0
  3
Thicken
350
FEE3
  0
XRECORD
  5
1E03
102
{ACAD_REACTORS
330
C
102
}
330
C
100
AcDbXrecord
280
     1
 90
   990106
  3

 60
     0
 61
     0
 62
     1
 63
     3
 64
     0
 65
     0
 66
     0
 67
     3
 68
     1
 69
     0
 70
     0
 71
     0
 72
     0
 40
0.0
170
     0
  0
DICTIONARY
  5
2C
102
{ACAD_REACTORS
330
C
102
}
330
C
100
AcDbDictionary
281
     1
  3
CTABLESTYLE
350
EBE3
  3
DIMASSOC
350
2E
  3
HIDETEXT
350
2D
  3
INDEXCTL
350
FEEF
  3
PROJECTNAME
350
EB6E
  3
SORTENTS
350
D2FF
  0
DICTIONARY
  5
FEED
102
{ACAD_REACTORS
330
C
102
}
330
C
100
AcDbDictionary
281
     1
  3
ASEBlockHierarchyIndexRecord
350
FEEE
1001
DCO15
1040
1610286102.786
  0
XRECORD
  5
FEF0
102
{ACAD_REACTORS
330
C
102
}
330
C
100
AcDbXrecord
280
     1
  1
DWGPROPS COOKIE
  2

  3

  4

  6

  7

  8
Administrador
  9

300
=
301
=
302
=
303
=
304
=
305
=
306
=
307
=
308
=
309
=
 40
4.84030824074074
 41
2452718.7597375
 42
2454440.782485949
  1

 90
        0
  0
XRECORD
  5
E51E
102
{ACAD_REACTORS
330
C0CF
102
}
330
C0CF
100
AcDbXrecord
280
     1
340
1F
  0
SORTENTSTABLE
  5
C0D0
102
{ACAD_REACTORS
330
C0CF
102
}
330
C0CF
100
AcDbSortentsTable
330
1F
331
BD08
  5
BD1B
331
BD09
  5
BD1C
331
BD0C
  5
BD1E
331
BD0D
  5
BD1F
331
BD0E
  5
BD20
331
BD0F
  5
BD21
331
BD2D
  5
BD62
331
BD2E
  5
BD63
331
BD10
  5
BD23
331
BD11
  5
BD24
331
BDCD
  5
BDE2
331
BD30
  5
BD65
331
BD12
  5
BD25
331
BDCE
  5
BDE3
331
BD13
  5
BD26
331
BDCF
  5
BE33
331
BDD0
  5
BE34
331
BDD1
  5
BE35
331
BDD2
  5
BE36
331
BDD3
  5
BE37
331
BDD4
  5
BE38
331
BDC0
  5
BDD2
331
BDC1
  5
BDD3
331
BDC2
  5
BDD4
331
BDC3
  5
BDD5
331
BDC4
  5
BDD6
331
F0A8
  5
F172
331
F0A9
  5
F173
331
D070
  5
D088
331
D071
  5
D08A
331
D072
  5
D08B
331
F0B0
  5
F174
331
CFCB
  5
CFD6
331
CFCC
  5
CFD7
331
CFCE
  5
CFD9
331
F0A2
  5
F109
331
CFCF
  5
CFDA
331
F0A3
  5
F10A
331
CFEE
  5
CFF9
331
CFD0
  5
CFDB
331
D05E
  5
D069
331
F0A4
  5
F10B
331
CFEF
  5
CFFA
331
CFD1
  5
CFDC
331
D05F
  5
D06A
331
7EB7
  5
A9F2
331
F0A5
  5
F116
331
CFD2
  5
CFDD
331
D060
  5
D06B
331
F0A6
  5
F170
331
CFD3
  5
CFDE
331
CFF1
  5
CFFC
331
D061
  5
D06C
331
F0A7
  5
F171
331
CFD4
  5
CFDF
331
D062
  5
D06D
331
CFD5
  5
CFE0
331
D06B
  5
D07F
331
D06C
  5
D081
331
D06D
  5
D085
331
D06E
  5
D086
331
D06F
  5
D087
331
FB08
  5
FB0E
331
FB09
  5
FB0F
331
FB0A
  5
FB10
331
FB0B
  5
FB11
331
FB0C
  5
FB12
331
FB0D
  5
FB13
331
FB7B
  5
10DE
331
FB0E
  5
FB14
331
FB0F
  5
FB15
331
FB10
  5
FB16
331
F8C8
  5
F8CC
331
FB11
  5
FB17
331
F8C9
  5
F8CD
331
FB12
  5
FB18
331
FC30
  5
FC33
331
F8CA
  5
F8CE
331
FB13
  5
FB19
331
FC31
  5
FC34
331
F8CB
  5
F8CF
331
FB14
  5
FB1A
331
FC32
  5
FC35
331
FC50
  5
FC53
331
F8CC
  5
F8D0
331
FB15
  5
FB1B
331
FC33
  5
FC36
331
FC51
  5
FC54
331
F8CD
  5
F8D1
331
FC68
  5
FC6B
331
FC34
  5
FC37
331
FC52
  5
FC55
331
FB16
  5
FB1C
331
F8CE
  5
F8D2
331
FC69
  5
FC6C
331
FC35
  5
FC38
331
FC53
  5
FC56
331
FB17
  5
FB1D
331
F8CF
  5
F8D3
331
FC6A
  5
FC6D
331
FC36
  5
FC39
331
FC54
  5
FC57
331
FB18
  5
FB29
331
F8D0
  5
F8D4
331
FC6B
  5
FC6E
331
FC37
  5
FC3A
331
FC55
  5
FC58
331
FB19
  5
FB2A
331
F8D1
  5
F8D5
331
FC6C
  5
FC6F
331
FC38
  5
FC3B
331
FC56
  5
FC59
331
FB1A
  5
FB2B
331
F8D2
  5
F8D6
331
FC6D
  5
FC70
331
FC39
  5
FC3C
331
FC57
  5
FC5A
331
FB1B
  5
FB7C
331
F8D3
  5
F8D7
331
FC6E
  5
FC71
331
FC3A
  5
FC3D
331
FC58
  5
FC5B
331
FB1C
  5
FB7D
331
F8D4
  5
F8D8
331
F978
  5
F9A2
331
FC6F
  5
FC72
331
FC3B
  5
FC3E
331
FC59
  5
FC5C
331
FC1D
  5
FC20
331
FB1D
  5
FB7E
331
F8D5
  5
F8D9
331
F8F3
  5
F8FC
331
F979
  5
F9A3
331
FC3C
  5
FC3F
331
FC5A
  5
FC5D
331
FC1E
  5
FC21
331
FC70
  5
FC73
331
F8D6
  5
F8DA
331
F964
  5
F96D
331
F97A
  5
F9A5
331
F9B0
  5
F9BF
331
FC3D
  5
FC40
331
FC5B
  5
FC5E
331
FC1F
  5
FC22
331
FC71
  5
FC74
331
F8D7
  5
F8DB
331
F965
  5
F96E
331
F97B
  5
F9A6
331
F9B1
  5
F9C0
331
FC3E
  5
FC41
331
FC5C
  5
FC5F
331
FC20
  5
FC23
331
FC72
  5
FC75
331
F8D8
  5
F8DC
331
F966
  5
F96F
331
F97C
  5
F9A7
331
F9B2
  5
F9C1
331
F9D0
  5
FA86
331
FC3F
  5
FC42
331
FC5D
  5
FC60
331
FB29
  5
F97D
331
FC21
  5
FC24
331
FC73
  5
FC76
331
F8D9
  5
F8DD
331
F967
  5
F974
331
F9B3
  5
F9C2
331
F9D1
  5
FAA1
331
FC5E
  5
FC61
331
FC40
  5
FC43
331
FB2A
  5
F9A8
331
FC22
  5
FC25
331
FC74
  5
FC77
331
F8DA
  5
F8DE
331
F968
  5
F975
331
F97E
  5
F9A9
331
F9B4
  5
F9C3
331
F9D2
  5
FAA6
331
FC41
  5
FC44
331
FC5F
  5
FC62
331
FC23
  5
FC26
331
FC75
  5
FC78
331
F8DB
  5
F8DF
331
F969
  5
F976
331
F97F
  5
F9AA
331
F9B5
  5
F9C4
331
F9D3
  5
FABE
331
FC42
  5
FC45
331
FC60
  5
FC63
331
FC24
  5
FC27
331
FC76
  5
FC79
331
FB06
  5
FB0C
331
F8DC
  5
F8E0
331
F96A
  5
F977
331
F980
  5
F9AB
331
F9B6
  5
F9C5
331
F9D4
  5
FACB
331
FC61
  5
FC64
331
FC43
  5
FC46
331
FC25
  5
FC28
331
FC77
  5
FC7A
331
FB07
  5
FB0D
331
F8DD
  5
F8E1
331
F96B
  5
F978
331
F981
  5
F9AC
331
F9B7
  5
F9C6
331
F9D5
  5
FACC
331
FC44
  5
FC47
331
FC62
  5
FC65
331
FC26
  5
FC29
331
FC78
  5
FC7B
331
F8DE
  5
F8E2
331
F96C
  5
F97A
331
F982
  5
F9AD
331
F9B8
  5
F9C7
331
F9D6
  5
FAE5
331
FC45
  5
FC48
331
FC63
  5
FC66
331
FC27
  5
FC2A
331
FC79
  5
FC7C
331
F8DF
  5
F8E8
331
F96D
  5
F97B
331
F983
  5
F9AE
331
F9B9
  5
F9C8
331
F9D7
  5
FAF2
331
FC46
  5
FC49
331
FC64
  5
FC67
331
FC28
  5
FC2B
331
FC7A
  5
FC7D
331
F8E0
  5
F8E9
331
F96E
  5
F97C
331
F984
  5
F9AF
331
F9BA
  5
F9C9
331
F9D8
  5
FAF3
331
FC47
  5
FC4A
331
FC65
  5
FC68
331
FC29
  5
FC2C
331
FC7B
  5
FC7E
331
F8E1
  5
F8EA
331
F9BB
  5
F9CA
331
F9D9
  5
FB08
331
FC48
  5
FC4B
331
FC66
  5
FC69
331
FC2A
  5
FC2D
331
FC7C
  5
FC7F
331
F8E2
  5
F8EB
331
F970
  5
F97E
331
F9BC
  5
F9CB
331
FC49
  5
FC4C
331
FC67
  5
FC6A
331
FC2B
  5
FC2E
331
FC7D
  5
FC80
331
F971
  5
F97F
331
F9BD
  5
F9CC
331
FC4A
  5
FC4D
331
FC2C
  5
FC2F
331
FC7E
  5
FC81
331
F972
  5
F980
331
F9BE
  5
F9CD
331
F9DC
  5
FB09
331
FC4B
  5
FC4E
331
FC2D
  5
FC30
331
FC7F
  5
FC82
331
F973
  5
F981
331
F9BF
  5
F9CE
331
FC4C
  5
FC4F
331
FC2E
  5
FC31
331
FC80
  5
FC83
331
F974
  5
F982
331
F9A2
  5
F9B1
331
F9C0
  5
F9CF
331
FC4D
  5
FC50
331
FC2F
  5
FC32
331
FC81
  5
FC84
331
F975
  5
F983
331
F9A3
  5
F9B2
331
F9C1
  5
F9D0
331
FC4E
  5
FC51
331
FC82
  5
FCDD
331
F976
  5
F984
331
F9A4
  5
F9B3
331
F9C2
  5
F9D1
331
FC4F
  5
FC52
331
FC83
  5
FCED
331
F977
  5
F985
331
F9A5
  5
F9B4
331
F9C3
  5
F9D2
331
FC84
  5
FD77
331
F9A6
  5
F9B5
331
F9C4
  5
F9D3
331
F9A7
  5
F9B6
331
F9C5
  5
F9D4
331
F9A8
  5
F9B7
331
F9C6
  5
F9D5
331
F9A9
  5
F9B8
331
F9C7
  5
F9D6
331
F9AA
  5
F9B9
331
F9C8
  5
F9D7
331
F9AB
  5
F9BA
331
F9C9
  5
F9D8
331
F9AC
  5
F9BB
331
F9CA
  5
F9D9
331
F9AD
  5
F9BC
331
F9CB
  5
F9DC
331
F9AE
  5
F9BD
331
F9CC
  5
F9DD
331
F9AF
  5
F9BE
331
F9CD
  5
F9DE
331
F9CE
  5
FA83
331
F9CF
  5
FA85
331
B508
  5
B51A
331
B509
  5
B54F
331
B50A
  5
B5C6
331
B50B
  5
B5C7
331
B50C
  5
B5C8
331
B50D
  5
B5C9
331
B50E
  5
B5CA
331
B50F
  5
B5CB
331
B510
  5
B5CC
331
B511
  5
B5CD
331
B512
  5
B5CF
331
B513
  5
B5D0
331
B514
  5
B5D1
331
B515
  5
B5D2
331
B659
  5
B66B
331
B516
  5
B5D3
331
B65A
  5
B66C
331
B517
  5
B5D4
331
B65B
  5
B66D
331
B518
  5
B5D5
331
B65C
  5
B66E
331
B519
  5
B5D6
331
B51A
  5
B5D7
331
B62C
  5
B63E
331
B661
  5
B673
331
B60F
  5
B621
331
B62D
  5
B63F
331
B62E
  5
B640
331
B662
  5
B674
331
B501
  5
B513
331
B62F
  5
B641
331
B663
  5
B675
331
B502
  5
B514
331
B630
  5
B642
331
B664
  5
B676
331
B503
  5
B515
331
B631
  5
B643
331
B632
  5
B644
331
B504
  5
B516
331
B633
  5
B645
331
B505
  5
B517
331
B651
  5
B663
331
B668
  5
B67A
331
B634
  5
B646
331
B506
  5
B518
331
B669
  5
B67B
331
B635
  5
B647
331
B507
  5
B519
331
B66A
  5
B67C
331
B655
  5
B667
331
B656
  5
B668
331
B657
  5
B669
331
FE1C
  5
1019
331
FDEB
  5
FDF8
331
E4DE
  5
E615
331
E4DF
  5
E616
  0
XRECORD
  5
E51D
102
{ACAD_REACTORS
330
D373
102
}
330
D373
100
AcDbXrecord
280
     1
340
1B
  0
XRECORD
  5
E51F
102
{ACAD_REACTORS
330
D375
102
}
330
D375
100
AcDbXrecord
280
     1
340
23
  0
XRECORD
  5
FEF8
102
{ACAD_REACTORS
330
FEF7
102
}
330
FEF7
100
AcDbXrecord
280
     1
 40
36828.0
  1
DISTRIBUCIÓN DE DOCUMENTOS
  0
XRECORD
  5
FEFA
102
{ACAD_REACTORS
330
FEF9
102
}
330
FEF9
100
AcDbXrecord
280
     1
 40
36828.0
  1
DISTRIBUCIÓN DE DOCUMENTOS
  0
XRECORD
  5
FEFC
102
{ACAD_REACTORS
330
FEFB
102
}
330
FEFB
100
AcDbXrecord
280
     1
 40
36828.0
  1
DISTRIBUCIÓN DE DOCUMENTOS
  0
XRECORD
  5
FEFE
102
{ACAD_REACTORS
330
FEFD
102
}
330
FEFD
100
AcDbXrecord
280
     1
 40
36828.0
  1
DISTRIBUCIÓN DE DOCUMENTOS
  0
DIMASSOC
  5
F9DB
102
{ACAD_REACTORS
330
F9DA
102
}
330
F9DA
100
AcDbDimAssoc
330
F9D9
 90
        3
 70
     0
 71
     0
  1
AcDbOsnapPointRef
 72
     1
331
F8CA
 73
     2
 91
        1
 40
1.0
 10
0.0
 20
0.0
 30
2.000000000000000E+50
 75
     0
  1
AcDbOsnapPointRef
 72
     1
331
F96A
 73
     2
 91
        0
 40
1.0
 10
0.0
 20
0.0
 30
2.000000000000000E+50
 75
     0
  0
XRECORD
  5
FF02
102
{ACAD_REACTORS
330
FF01
102
}
330
FF01
100
AcDbXrecord
280
     1
 40
36828.0
  1
DISTRIBUCIÓN DE DOCUMENTOS
  0
XRECORD
  5
FF04
102
{ACAD_REACTORS
330
FF03
102
}
330
FF03
100
AcDbXrecord
280
     1
 40
36828.0
  1
DISTRIBUCIÓN DE DOCUMENTOS
  0
XRECORD
  5
FF06
102
{ACAD_REACTORS
330
FF05
102
}
330
FF05
100
AcDbXrecord
280
     1
 40
36828.0
  1
DISTRIBUCIÓN DE DOCUMENTOS
  0
XRECORD
  5
FF08
102
{ACAD_REACTORS
330
FF07
102
}
330
FF07
100
AcDbXrecord
280
     1
 40
36828.0
  1
DISTRIBUCIÓN DE DOCUMENTOS
  0
IMAGEDEF
  5
7EAE
102
{ACAD_REACTORS
330
7EAD
102
}
330
7EAD
100
AcDbRasterImageDef
 90
        0
  1
C:\backup\Eng. Armando\Digitalização de banheiras\b_marina.bmp
 10
9050.0
 20
12699.0
 11
0.0423334177814049
 21
0.0423334177814049
280
     1
281
     2
  0
IMAGEDEF
  5
7EAF
102
{ACAD_REACTORS
330
7EAD
102
}
330
7EAD
100
AcDbRasterImageDef
 90
        0
  1
C:\backup\Eng. Armando\Digitalização de banheiras\b_marta.bmp
 10
4573.0
 20
4901.0
 11
0.0423334177814049
 21
0.0423334177814049
280
     1
281
     2
  0
IMAGEDEF
  5
7EB0
102
{ACAD_REACTORS
330
7EAD
102
}
330
7EAD
100
AcDbRasterImageDef
 90
        0
  1
C:\backup\Eng. Armando\Digitalização de banheiras\b_nelia.bmp
 10
5237.0
 20
6093.0
 11
0.2638522321211991
 21
0.264550269889837
280
     1
281
     2
  0
IMAGEDEF
  5
7EB1
102
{ACAD_REACTORS
330
7EAD
102
}
330
7EAD
100
AcDbRasterImageDef
 90
        0
  1
C:\backup\Eng. Armando\Digitalização de banheiras\b_romantica.bmp
 10
3126.0
 20
852.0
 11
0.0423334177814049
 21
0.0423334177814049
280
     1
281
     2
  0
IMAGEDEF
  5
7EB2
102
{ACAD_REACTORS
330
7EAD
102
}
330
7EAD
100
AcDbRasterImageDef
 90
        0
  1
C:\backup\Eng. Armando\Digitalização de banheiras\b_teresa.bmp
 10
4493.0
 20
6021.0
 11
0.0423334177814049
 21
0.0423334177814049
280
     1
281
     2
  0
LAYOUT
  5
1E
102
{ACAD_XDICTIONARY
360
FEF1
102
}
102
{ACAD_REACTORS
330
1A
102
}
330
1A
100
AcDbPlotSettings
  1

  2
HP DesignJet 330 (E / A0)
  4

  6

 40
0.0
 41
0.0
 42
0.0
 43
0.0
 44
0.0
 45
0.0
 46
0.0
 47
0.0
 48
0.0
 49
0.0
140
0.0
141
0.0
142
1.0
143
1.0
 70
   688
 72
     0
 73
     0
 74
     5
  7
ploter.ctb
 75
    16
147
1.0
148
0.0
149
0.0
100
AcDbLayout
  1
Layout1
 70
     1
 71
     1
 10
0.0
 20
0.0
 11
420.0
 21
297.0
 12
0.0
 22
0.0
 32
0.0
 14
1.000000000000000E+20
 24
1.000000000000000E+20
 34
1.000000000000000E+20
 15
-1.000000000000000E+20
 25
-1.000000000000000E+20
 35
-1.000000000000000E+20
146
0.0
 13
0.0
 23
0.0
 33
0.0
 16
1.0
 26
0.0
 36
0.0
 17
0.0
 27
1.0
 37
0.0
 76
     0
330
1B
  0
LAYOUT
  5
26
102
{ACAD_XDICTIONARY
360
FEF5
102
}
102
{ACAD_REACTORS
330
1A
102
}
330
1A
100
AcDbPlotSettings
  1

  2
HP DesignJet 330 (E / A0)
  4

  6

 40
0.0
 41
0.0
 42
0.0
 43
0.0
 44
0.0
 45
0.0
 46
0.0
 47
0.0
 48
0.0
 49
0.0
140
0.0
141
0.0
142
1.0
143
1.0
 70
   688
 72
     0
 73
     0
 74
     5
  7
ploter.ctb
 75
    16
147
1.0
148
0.0
149
0.0
100
AcDbLayout
  1
Layout2
 70
     1
 71
     2
 10
0.0
 20
0.0
 11
12.0
 21
9.0
 12
0.0
 22
0.0
 32
0.0
 14
0.0
 24
0.0
 34
0.0
 15
0.0
 25
0.0
 35
0.0
146
0.0
 13
0.0
 23
0.0
 33
0.0
 16
1.0
 26
0.0
 36
0.0
 17
0.0
 27
1.0
 37
0.0
 76
     0
330
23
  0
LAYOUT
  5
22
102
{ACAD_XDICTIONARY
360
FEF3
102
}
102
{ACAD_REACTORS
330
1A
102
}
330
1A
100
AcDbPlotSettings
  1

  2
PLOTER-2-A4.pc3
  4
A4
  6

 40
3.0
 41
12.0
 42
3.057998657226562
 43
6.010650634765625
 44
210.0579986572266
 45
297.0106506347656
 46
20.0
 47
0.0
 48
2556.856202316996
 49
-9401.721753377307
140
4406.856202316996
141
-6531.721753377306
142
1.0
143
10.28673835125448
 70
 11952
 72
     1
 73
     2
 74
     4
  7
ploter.ctb
 75
     0
147
0.097212543554007
148
-2556.856202316996
149
9401.721753377307
100
AcDbLayout
  1
Model
 70
     1
 71
     0
 10
0.0
 20
0.0
 11
12.0
 21
9.0
 12
0.0
 22
0.0
 32
0.0
 14
0.0
 24
0.0
 34
0.0
 15
0.0
 25
0.0
 35
0.0
146
0.0
 13
0.0
 23
0.0
 33
0.0
 16
1.0
 26
0.0
 36
0.0
 17
0.0
 27
1.0
 37
0.0
 76
     0
330
1F
331
FEC9
1001
ACAD_PSEXT
1000
PLOTER-2-A4.pc3
1000
HP Business Inkjet 2600 PCL 5C
1000
CERAMICAS_GALA
1000

1070
     0
  0
MATERIAL
  5
FED4
102
{ACAD_XDICTIONARY
360
FF0B
102
}
102
{ACAD_REACTORS
330
E5FF
102
}
330
E5FF
100
AcDbMaterial
  1
ByBlock
  0
MATERIAL
  5
FED3
102
{ACAD_XDICTIONARY
360
FF09
102
}
102
{ACAD_REACTORS
330
E5FF
102
}
330
E5FF
100
AcDbMaterial
  1
ByLayer
  0
MATERIAL
  5
FED5
102
{ACAD_XDICTIONARY
360
FF0D
102
}
102
{ACAD_REACTORS
330
E5FF
102
}
330
E5FF
100
AcDbMaterial
  1
Global
  0
MLINESTYLE
  5
18
102
{ACAD_REACTORS
330
17
102
}
330
17
100
AcDbMlineStyle
  2
STANDARD
 70
     0
  3

 62
   256
 51
90.0
 52
90.0
 71
     2
 49
0.5
 62
   256
  6
BYLAYER
 49
-0.5
 62
   256
  6
BYLAYER
  0
ACDBPLACEHOLDER
  5
F
102
{ACAD_REACTORS
330
E
102
}
330
E
  0
TABLESTYLE
  5
EBAB
102
{ACAD_XDICTIONARY
360
FEFF
102
}
102
{ACAD_REACTORS
330
EBAA
102
}
330
EBAA
100
AcDbTableStyle
  3
Standard
 70
     0
 71
     0
 40
1.5
 41
1.5
280
     0
281
     0
  7
Standard
140
4.5
170
     2
 62
     0
 63
     7
283
     0
274
    -2
284
     1
 64
     0
275
    -2
285
     1
 65
     0
276
    -2
286
     1
 66
     0
277
    -2
287
     1
 67
     0
278
    -2
288
     1
 68
     0
279
    -2
289
     1
 69
     0
  7
Standard
140
6.0
170
     5
 62
     0
 63
     7
283
     0
274
    -2
284
     1
 64
     0
275
    -2
285
     1
 65
     0
276
    -2
286
     1
 66
     0
277
    -2
287
     1
 67
     0
278
    -2
288
     1
 68
     0
279
    -2
289
     1
 69
     0
  7
Standard
140
4.5
170
     5
 62
     0
 63
     7
283
     0
274
    -2
284
     1
 64
     0
275
    -2
285
     1
 65
     0
276
    -2
286
     1
 66
     0
277
    -2
287
     1
 67
     0
278
    -2
288
     1
 68
     0
279
    -2
289
     1
 69
     0
  0
VISUALSTYLE
  5
FEDC
102
{ACAD_REACTORS
330
FED6
102
}
330
FED6
100
AcDbVisualStyle
  2
2dWireframe
 70
     4
 71
     0
 72
     2
 73
     0
 90
        0
 40
-0.6
 41
-30.0
 62
     5
 63
     7
 74
     1
 91
        4
 64
     7
 65
   257
 75
     1
175
     1
 42
1.0
 92
        0
 66
   257
 43
1.0
 76
     1
 77
     6
 78
     2
 67
     7
 79
     5
170
     0
171
     0
290
     0
174
     0
 93
        1
 44
0.0
173
     0
291
     0
 45
0.0
1001
ACAD
1000
AcDbSavedByObjectVersion
1070
     0
  0
VISUALSTYLE
  5
FEDE
102
{ACAD_REACTORS
330
FED6
102
}
330
FED6
100
AcDbVisualStyle
  2
3D Hidden
 70
     6
 71
     1
 72
     2
 73
     2
 90
        0
 40
-0.6
 41
-30.0
 62
     5
 63
     7
 74
     2
 91
        2
 64
     7
 65
   257
 75
     2
175
     1
 42
40.0
 92
        0
 66
   257
 43
1.0
 76
     1
 77
     6
 78
     2
 67
     7
 79
     3
170
     0
171
     0
290
     0
174
     0
 93
        1
 44
0.0
173
     0
291
     0
 45
0.0
1001
ACAD
1000
AcDbSavedByObjectVersion
1070
     0
  0
VISUALSTYLE
  5
FEDD
102
{ACAD_REACTORS
330
FED6
102
}
330
FED6
100
AcDbVisualStyle
  2
3dWireframe
 70
     5
 71
     0
 72
     2
 73
     0
 90
        0
 40
-0.6
 41
-30.0
 62
     5
 63
     7
 74
     1
 91
        4
 64
     7
 65
   257
 75
     1
175
     1
 42
1.0
 92
        0
 66
   257
 43
1.0
 76
     1
 77
     6
 78
     2
 67
     7
 79
     5
170
     0
171
     0
290
     0
174
     0
 93
        1
 44
0.0
173
     0
291
     0
 45
0.0
1001
ACAD
1000
AcDbSavedByObjectVersion
1070
     0
  0
VISUALSTYLE
  5
FEDB
102
{ACAD_REACTORS
330
FED6
102
}
330
FED6
100
AcDbVisualStyle
  2
Basic
 70
     7
 71
     1
 72
     0
 73
     1
 90
        0
 40
-0.6
 41
-30.0
 62
     5
 63
     7
 74
     0
 91
        4
 64
     7
 65
   257
 75
     1
175
     1
 42
1.0
 92
        8
 66
     7
 43
1.0
 76
     1
 77
     6
 78
     2
 67
     7
 79
     5
170
     0
171
     0
290
     0
174
     0
 93
        1
 44
0.0
173
     0
291
     1
 45
0.0
1001
ACAD
1000
AcDbSavedByObjectVersion
1070
     0
  0
VISUALSTYLE
  5
FEE2
102
{ACAD_REACTORS
330
FED6
102
}
330
FED6
100
AcDbVisualStyle
  2
Brighten
 70
    12
 71
     2
 72
     2
 73
     0
 90
        0
 40
-0.6
 41
-30.0
 62
     5
 63
     7
 74
     1
 91
        4
 64
     7
 65
   257
 75
     1
175
     1
 42
1.0
 92
        8
 66
     7
 43
1.0
 76
     1
 77
     6
 78
     2
 67
     7
 79
     5
170
     0
171
     0
290
     0
174
     0
 93
        1
 44
50.0
173
     0
291
     1
 45
0.0
1001
ACAD
1000
AcDbSavedByObjectVersion
1070
     0
  0
VISUALSTYLE
  5
FEE6
102
{ACAD_REACTORS
330
FED6
102
}
330
FED6
100
AcDbVisualStyle
  2
ColorChange
 70
    16
 71
     2
 72
     2
 73
     3
 90
        0
 40
-0.6
 41
-30.0
 62
     5
 63
     8
 74
     1
 91
        4
 64
     7
 65
   257
 75
     1
175
     1
 42
1.0
 92
        8
 66
     8
 43
1.0
 76
     1
 77
     6
 78
     2
 67
     7
 79
     5
170
     0
171
     0
290
     0
174
     0
 93
        1
 44
0.0
173
     0
291
     1
 45
0.0
1001
ACAD
1000
AcDbSavedByObjectVersion
1070
     0
  0
VISUALSTYLE
  5
FEDF
102
{ACAD_REACTORS
330
FED6
102
}
330
FED6
100
AcDbVisualStyle
  2
Conceptual
 70
     9
 71
     3
 72
     2
 73
     0
 90
        0
 40
-0.6
 41
-30.0
 62
     5
 63
     7
 74
     2
 91
        2
 64
     7
 65
   257
 75
     1
175
     1
 42
40.0
 92
        8
 66
     7
 43
1.0
 76
     1
 77
     6
 78
     2
 67
     7
 79
     3
170
     0
171
     0
290
     0
174
     0
 93
        1
 44
0.0
173
     0
291
     0
 45
0.0
1001
ACAD
1000
AcDbSavedByObjectVersion
1070
     0
  0
VISUALSTYLE
  5
FEE1
102
{ACAD_REACTORS
330
FED6
102
}
330
FED6
100
AcDbVisualStyle
  2
Dim
 70
    11
 71
     2
 72
     2
 73
     0
 90
        0
 40
-0.6
 41
-30.0
 62
     5
 63
     7
 74
     1
 91
        4
 64
     7
 65
   257
 75
     1
175
     1
 42
1.0
 92
        8
 66
     7
 43
1.0
 76
     1
 77
     6
 78
     2
 67
     7
 79
     5
170
     0
171
     0
290
     0
174
     0
 93
        1
 44
-50.0
173
     0
291
     1
 45
0.0
1001
ACAD
1000
AcDbSavedByObjectVersion
1070
     0
  0
VISUALSTYLE
  5
FEE5
102
{ACAD_REACTORS
330
FED6
102
}
330
FED6
100
AcDbVisualStyle
  2
Facepattern
 70
    15
 71
     2
 72
     2
 73
     0
 90
        0
 40
-0.6
 41
-30.0
 62
     5
 63
     7
 74
     1
 91
        4
 64
     7
 65
   257
 75
     1
175
     1
 42
1.0
 92
        8
 66
     7
 43
1.0
 76
     1
 77
     6
 78
     2
 67
     7
 79
     5
170
     0
171
     0
290
     0
174
     0
 93
        1
 44
0.0
173
     0
291
     1
 45
0.0
1001
ACAD
1000
AcDbSavedByObjectVersion
1070
     0
  0
VISUALSTYLE
  5
FED7
102
{ACAD_REACTORS
330
FED6
102
}
330
FED6
100
AcDbVisualStyle
  2
Flat
 70
     0
 71
     2
 72
     1
 73
     1
 90
        2
 40
-0.6
 41
30.0
 62
     5
 63
     7
 74
     0
 91
        4
 64
     7
 65
   257
 75
     1
175
     1
 42
1.0
 92
        8
 66
     7
 43
1.0
 76
     1
 77
     6
 78
     2
 67
     7
 79
     5
170
     0
171
     0
290
     0
174
     0
 93
       13
 44
0.0
173
     0
291
     1
 45
0.0
1001
ACAD
1000
AcDbSavedByObjectVersion
1070
     0
  0
VISUALSTYLE
  5
FED8
102
{ACAD_REACTORS
330
FED6
102
}
330
FED6
100
AcDbVisualStyle
  2
FlatWithEdges
 70
     1
 71
     2
 72
     1
 73
     1
 90
        2
 40
-0.6
 41
30.0
 62
     5
 63
     7
 74
     1
 91
        4
 64
     7
 65
   257
 75
     1
175
     1
 42
1.0
 92
        0
 66
   257
 43
1.0
 76
     1
 77
     6
 78
     2
 67
     7
 79
     5
170
     0
171
     0
290
     0
174
     0
 93
       13
 44
0.0
173
     0
291
     1
 45
0.0
1001
ACAD
1000
AcDbSavedByObjectVersion
1070
     0
  0
VISUALSTYLE
  5
FED9
102
{ACAD_REACTORS
330
FED6
102
}
330
FED6
100
AcDbVisualStyle
  2
Gouraud
 70
     2
 71
     2
 72
     2
 73
     1
 90
        2
 40
-0.6
 41
30.0
 62
     5
 63
     7
 74
     0
 91
        4
 64
     7
 65
   257
 75
     1
175
     1
 42
1.0
 92
        0
 66
     7
 43
1.0
 76
     1
 77
     6
 78
     2
 67
     7
 79
     5
170
     0
171
     0
290
     0
174
     0
 93
       13
 44
0.0
173
     0
291
     1
 45
0.0
1001
ACAD
1000
AcDbSavedByObjectVersion
1070
     0
  0
VISUALSTYLE
  5
FEDA
102
{ACAD_REACTORS
330
FED6
102
}
330
FED6
100
AcDbVisualStyle
  2
GouraudWithEdges
 70
     3
 71
     2
 72
     2
 73
     1
 90
        2
 40
-0.6
 41
30.0
 62
     5
 63
     7
 74
     1
 91
        4
 64
     7
 65
   257
 75
     1
175
     1
 42
1.0
 92
        0
 66
   257
 43
1.0
 76
     1
 77
     6
 78
     2
 67
     7
 79
     5
170
     0
171
     0
290
     0
174
     0
 93
       13
 44
0.0
173
     0
291
     1
 45
0.0
1001
ACAD
1000
AcDbSavedByObjectVersion
1070
     0
  0
VISUALSTYLE
  5
FEE4
102
{ACAD_REACTORS
330
FED6
102
}
330
FED6
100
AcDbVisualStyle
  2
Linepattern
 70
    14
 71
     2
 72
     2
 73
     0
 90
        0
 40
-0.6
 41
-30.0
 62
     5
 63
     7
 74
     1
 91
        4
 64
     7
 65
   257
 75
     7
175
     7
 42
1.0
 92
        8
 66
     7
 43
1.0
 76
     1
 77
     6
 78
     2
 67
     7
 79
     5
170
     0
171
     0
290
     0
174
     0
 93
        1
 44
0.0
173
     0
291
     1
 45
0.0
1001
ACAD
1000
AcDbSavedByObjectVersion
1070
     0
  0
VISUALSTYLE
  5
FEE0
102
{ACAD_REACTORS
330
FED6
102
}
330
FED6
100
AcDbVisualStyle
  2
Realistic
 70
     8
 71
     2
 72
     2
 73
     0
 90
        0
 40
-0.6
 41
-30.0
 62
     5
 63
     7
 74
     1
 91
        0
 64
     7
 65
   257
 75
     1
175
     1
 42
1.0
 92
        8
 66
     8
 43
1.0
 76
     1
 77
     6
 78
     2
 67
     7
 79
     5
170
     0
171
     0
290
     0
174
     0
 93
       13
 44
0.0
173
     0
291
     0
 45
0.0
1001
ACAD
1000
AcDbSavedByObjectVersion
1070
     0
  0
VISUALSTYLE
  5
FEE3
102
{ACAD_REACTORS
330
FED6
102
}
330
FED6
100
AcDbVisualStyle
  2
Thicken
 70
    13
 71
     2
 72
     2
 73
     0
 90
        0
 40
-0.6
 41
-30.0
 62
     5
 63
     7
 74
     1
 91
        4
 64
     7
 65
   257
 75
     1
175
     1
 42
1.0
 92
       12
 66
     7
 43
1.0
 76
     1
 77
     6
 78
     2
 67
     7
 79
     5
170
     0
171
     0
290
     0
174
     0
 93
        1
 44
0.0
173
     0
291
     1
 45
0.0
1001
ACAD
1000
AcDbSavedByObjectVersion
1070
     0
  0
DICTIONARYVAR
  5
EBE3
102
{ACAD_REACTORS
330
2C
102
}
330
2C
100
DictionaryVariables
280
     0
  1
STANDARD
  0
DICTIONARYVAR
  5
2E
102
{ACAD_REACTORS
330
2C
102
}
330
2C
100
DictionaryVariables
280
     0
  1
2
  0
DICTIONARYVAR
  5
2D
102
{ACAD_REACTORS
330
2C
102
}
330
2C
100
DictionaryVariables
280
     0
  1
1
  0
DICTIONARYVAR
  5
FEEF
102
{ACAD_REACTORS
330
2C
102
}
330
2C
100
DictionaryVariables
280
     0
  1
0
  0
DICTIONARYVAR
  5
EB6E
102
{ACAD_REACTORS
330
2C
102
}
330
2C
100
DictionaryVariables
280
     0
  1

  0
DICTIONARYVAR
  5
D2FF
102
{ACAD_REACTORS
330
2C
102
}
330
2C
100
DictionaryVariables
280
     0
  1
127
  0
XRECORD
  5
FEEE
102
{ACAD_REACTORS
330
FEED
102
}
330
FEED
100
AcDbXrecord
280
     1
330
F0A2
330
F0A3
330
F0A4
330
F0A5
330
F0A6
330
F0A7
330
F0A8
330
F0A9
330
F0B0
  0
DICTIONARY
  5
FEF1
330
1E
100
AcDbDictionary
280
     1
281
     1
  3
ACAD_XREC_ROUNDTRIP
360
FEF2
  0
DICTIONARY
  5
FEF5
330
26
100
AcDbDictionary
280
     1
281
     1
  3
ACAD_XREC_ROUNDTRIP
360
FEF6
  0
DICTIONARY
  5
FEF3
330
22
100
AcDbDictionary
280
     1
281
     1
  3
ACAD_XREC_ROUNDTRIP
360
FEF4
  0
DICTIONARY
  5
FF0B
330
FED4
100
AcDbDictionary
280
     1
281
     1
  3
ACAD_XREC_ROUNDTRIP
360
FF0C
  0
DICTIONARY
  5
FF09
330
FED3
100
AcDbDictionary
280
     1
281
     1
  3
ACAD_XREC_ROUNDTRIP
360
FF0A
  0
DICTIONARY
  5
FF0D
330
FED5
100
AcDbDictionary
280
     1
281
     1
  3
ACAD_XREC_ROUNDTRIP
360
FF0E
  0
DICTIONARY
  5
FEFF
330
EBAB
100
AcDbDictionary
280
     1
281
     1
  3
ACAD_XREC_ROUNDTRIP
360
FF00
  0
XRECORD
  5
FEF2
102
{ACAD_REACTORS
330
FEF1
102
}
330
FEF1
100
AcDbXrecord
280
     1
102
SHADEPLOT
 70
     0
102
SHADEPLOTRESLEVEL
 70
     2
102
SHADEPLOTCUSTOMDPI
 70
   300
  0
XRECORD
  5
FEF6
102
{ACAD_REACTORS
330
FEF5
102
}
330
FEF5
100
AcDbXrecord
280
     1
102
SHADEPLOT
 70
     0
102
SHADEPLOTRESLEVEL
 70
     2
102
SHADEPLOTCUSTOMDPI
 70
   300
  0
XRECORD
  5
FEF4
102
{ACAD_REACTORS
330
FEF3
102
}
330
FEF3
100
AcDbXrecord
280
     1
102
SHADEPLOT
 70
     0
102
SHADEPLOTRESLEVEL
 70
     2
102
SHADEPLOTCUSTOMDPI
 70
   300
  0
XRECORD
  5
FF0C
102
{ACAD_REACTORS
330
FF0B
102
}
330
FF0B
100
AcDbXrecord
280
     1
102
MATERIAL
148
0.0
149
0.0
149
0.0
 93
        0
 94
       63
282
     0
 72
     1
 77
     1
171
     1
175
     1
179
     1
273
     0
  0
XRECORD
  5
FF0A
102
{ACAD_REACTORS
330
FF09
102
}
330
FF09
100
AcDbXrecord
280
     1
102
MATERIAL
148
0.0
149
0.0
149
0.0
 93
        0
 94
       63
282
     0
 72
     1
 77
     1
171
     1
175
     1
179
     1
273
     0
  0
XRECORD
  5
FF0E
102
{ACAD_REACTORS
330
FF0D
102
}
330
FF0D
100
AcDbXrecord
280
     1
102
MATERIAL
148
0.0
149
0.0
149
0.0
 93
        0
 94
       63
282
     0
 72
     1
 77
     1
171
     1
175
     1
179
     1
273
     0
  0
XRECORD
  5
FF00
102
{ACAD_REACTORS
330
FEFF
102
}
330
FEFF
100
AcDbXrecord
280
     1
102
ACAD_ROUNDTRIP_PRE2007_TABLESTYLE
 90
        4
 91
        0
  1

 92
        4
 93
        0
  2

 94
        4
 95
        0
  3

  0
ENDSEC
  0
EOF
