  0
SECTION
  2
HEADER
  9
$ACADVER
  1
AC1015
  9
$ACADMAINTVER
 70
    20
  9
$DWGCODEPAGE
  3
ANSI_1252
  9
$INSBASE
 10
0.0
 20
0.0
 30
0.0
  9
$EXTMIN
 10
1715.352870550677
 20
455.4674703805974
 30
0.0
  9
$EXTMAX
 10
3815.352870550677
 20
3425.467470380598
 30
0.0
  9
$LIMMIN
 10
0.0
 20
0.0
  9
$LIMMAX
 10
210.0
 20
297.0
  9
$ORTHOMODE
 70
     1
  9
$REGENMODE
 70
     1
  9
$FILLMODE
 70
     1
  9
$QTEXTMODE
 70
     0
  9
$MIRRTEXT
 70
     1
  9
$LTSCALE
 40
25.0
  9
$ATTMODE
 70
     1
  9
$TEXTSIZE
 40
2.75
  9
$TRACEWID
 40
1.0
  9
$TEXTSTYLE
  7
KK
  9
$CLAYER
  8
COTAS
  9
$CELTYPE
  6
BYLAYER
  9
$CECOLOR
 62
   256
  9
$CELTSCALE
 40
1.0
  9
$DISPSILH
 70
     0
  9
$DIMSCALE
 40
10.0
  9
$DIMASZ
 40
3.0
  9
$DIMEXO
 40
0.0
  9
$DIMDLI
 40
7.0
  9
$DIMRND
 40
0.0
  9
$DIMDLE
 40
0.0
  9
$DIMEXE
 40
2.0
  9
$DIMTP
 40
0.0
  9
$DIMTM
 40
0.0
  9
$DIMTXT
 40
2.5
  9
$DIMCEN
 40
1.5
  9
$DIMTSZ
 40
0.0
  9
$DIMTOL
 70
     0
  9
$DIMLIM
 70
     0
  9
$DIMTIH
 70
     0
  9
$DIMTOH
 70
     0
  9
$DIMSE1
 70
     0
  9
$DIMSE2
 70
     0
  9
$DIMTAD
 70
     0
  9
$DIMZIN
 70
     0
  9
$DIMBLK
  1

  9
$DIMASO
 70
     1
  9
$DIMSHO
 70
     0
  9
$DIMPOST
  1

  9
$DIMAPOST
  1

  9
$DIMALT
 70
     0
  9
$DIMALTD
 70
     2
  9
$DIMALTF
 40
25.4
  9
$DIMLFAC
 40
1.0
  9
$DIMTOFL
 70
     0
  9
$DIMTVP
 40
0.0
  9
$DIMTIX
 70
     0
  9
$DIMSOXD
 70
     0
  9
$DIMSAH
 70
     0
  9
$DIMBLK1
  1

  9
$DIMBLK2
  1

  9
$DIMSTYLE
  2
STANDARD
  9
$DIMCLRD
 70
   256
  9
$DIMCLRE
 70
   256
  9
$DIMCLRT
 70
     6
  9
$DIMTFAC
 40
1.0
  9
$DIMGAP
 40
3.0
  9
$DIMJUST
 70
     0
  9
$DIMSD1
 70
     0
  9
$DIMSD2
 70
     0
  9
$DIMTOLJ
 70
     1
  9
$DIMTZIN
 70
     8
  9
$DIMALTZ
 70
     0
  9
$DIMALTTZ
 70
     0
  9
$DIMUPT
 70
     1
  9
$DIMDEC
 70
     0
  9
$DIMTDEC
 70
     1
  9
$DIMALTU
 70
     2
  9
$DIMALTTD
 70
     2
  9
$DIMTXSTY
  7
ROMANS
  9
$DIMAUNIT
 70
     0
  9
$DIMADEC
 70
     0
  9
$DIMALTRND
 40
0.0
  9
$DIMAZIN
 70
     0
  9
$DIMDSEP
 70
    46
  9
$DIMATFIT
 70
     0
  9
$DIMFRAC
 70
     0
  9
$DIMLDRBLK
  1

  9
$DIMLUNIT
 70
     2
  9
$DIMLWD
 70
    -2
  9
$DIMLWE
 70
    -2
  9
$DIMTMOVE
 70
     0
  9
$LUNITS
 70
     2
  9
$LUPREC
 70
     2
  9
$SKETCHINC
 40
1.0
  9
$FILLETRAD
 40
20.0
  9
$AUNITS
 70
     0
  9
$AUPREC
 70
     0
  9
$MENU
  1
C:\ACADR13\WIN\SUPPORT\ACAD
  9
$ELEVATION
 40
0.0
  9
$PELEVATION
 40
0.0
  9
$THICKNESS
 40
0.0
  9
$LIMCHECK
 70
     0
  9
$CHAMFERA
 40
0.0
  9
$CHAMFERB
 40
0.0
  9
$CHAMFERC
 40
0.0
  9
$CHAMFERD
 40
0.0
  9
$SKPOLY
 70
     0
  9
$TDCREATE
 40
2450638.577684491
  9
$TDUCREATE
 40
2450638.536017824
  9
$TDUPDATE
 40
2454469.788605706
  9
$TDUUPDATE
 40
2454469.746939039
  9
$TDINDWG
 40
0.2716057986
  9
$TDUSRTIMER
 40
0.2716057986
  9
$USRTIMER
 70
     1
  9
$ANGBASE
 50
0.0
  9
$ANGDIR
 70
     0
  9
$PDMODE
 70
     0
  9
$PDSIZE
 40
0.0
  9
$PLINEWID
 40
0.0
  9
$SPLFRAME
 70
     0
  9
$SPLINETYPE
 70
     6
  9
$SPLINESEGS
 70
     8
  9
$HANDSEED
  5
7F62
  9
$SURFTAB1
 70
     6
  9
$SURFTAB2
 70
     6
  9
$SURFTYPE
 70
     6
  9
$SURFU
 70
     6
  9
$SURFV
 70
     6
  9
$UCSBASE
  2

  9
$UCSNAME
  2

  9
$UCSORG
 10
0.0
 20
0.0
 30
0.0
  9
$UCSXDIR
 10
1.0
 20
0.0
 30
0.0
  9
$UCSYDIR
 10
0.0
 20
1.0
 30
0.0
  9
$UCSORTHOREF
  2

  9
$UCSORTHOVIEW
 70
     0
  9
$UCSORGTOP
 10
0.0
 20
0.0
 30
0.0
  9
$UCSORGBOTTOM
 10
0.0
 20
0.0
 30
0.0
  9
$UCSORGLEFT
 10
0.0
 20
0.0
 30
0.0
  9
$UCSORGRIGHT
 10
0.0
 20
0.0
 30
0.0
  9
$UCSORGFRONT
 10
0.0
 20
0.0
 30
0.0
  9
$UCSORGBACK
 10
0.0
 20
0.0
 30
0.0
  9
$PUCSBASE
  2

  9
$PUCSNAME
  2

  9
$PUCSORG
 10
0.0
 20
0.0
 30
0.0
  9
$PUCSXDIR
 10
1.0
 20
0.0
 30
0.0
  9
$PUCSYDIR
 10
0.0
 20
1.0
 30
0.0
  9
$PUCSORTHOREF
  2

  9
$PUCSORTHOVIEW
 70
     0
  9
$PUCSORGTOP
 10
0.0
 20
0.0
 30
0.0
  9
$PUCSORGBOTTOM
 10
0.0
 20
0.0
 30
0.0
  9
$PUCSORGLEFT
 10
0.0
 20
0.0
 30
0.0
  9
$PUCSORGRIGHT
 10
0.0
 20
0.0
 30
0.0
  9
$PUCSORGFRONT
 10
0.0
 20
0.0
 30
0.0
  9
$PUCSORGBACK
 10
0.0
 20
0.0
 30
0.0
  9
$USERI1
 70
     0
  9
$USERI2
 70
     0
  9
$USERI3
 70
     0
  9
$USERI4
 70
     0
  9
$USERI5
 70
     0
  9
$USERR1
 40
0.0
  9
$USERR2
 40
0.0
  9
$USERR3
 40
0.0
  9
$USERR4
 40
0.0
  9
$USERR5
 40
0.0
  9
$WORLDVIEW
 70
     1
  9
$SHADEDGE
 70
     3
  9
$SHADEDIF
 70
    70
  9
$TILEMODE
 70
     1
  9
$MAXACTVP
 70
    16
  9
$PINSBASE
 10
0.0
 20
0.0
 30
0.0
  9
$PLIMCHECK
 70
     0
  9
$PEXTMIN
 10
1.000000000000000E+20
 20
1.000000000000000E+20
 30
1.000000000000000E+20
  9
$PEXTMAX
 10
-1.000000000000000E+20
 20
-1.000000000000000E+20
 30
-1.000000000000000E+20
  9
$PLIMMIN
 10
0.0
 20
0.0
  9
$PLIMMAX
 10
12.0
 20
9.0
  9
$UNITMODE
 70
     0
  9
$VISRETAIN
 70
     0
  9
$PLINEGEN
 70
     0
  9
$PSLTSCALE
 70
     0
  9
$TREEDEPTH
 70
  3020
  9
$CMLSTYLE
  2
STANDARD
  9
$CMLJUST
 70
     0
  9
$CMLSCALE
 40
1.0
  9
$PROXYGRAPHICS
 70
     1
  9
$MEASUREMENT
 70
     0
  9
$CELWEIGHT
370
    -1
  9
$ENDCAPS
280
     0
  9
$JOINSTYLE
280
     0
  9
$LWDISPLAY
290
     0
  9
$INSUNITS
 70
     0
  9
$HYPERLINKBASE
  1

  9
$STYLESHEET
  1

  9
$XEDIT
290
     1
  9
$CEPSNTYPE
380
     0
  9
$PSTYLEMODE
290
     1
  9
$FINGERPRINTGUID
  2
{104D8A36-81A1-42BD-B105-EB7A6C25F797}
  9
$VERSIONGUID
  2
{DB9C6AF3-8393-41E3-A61D-A94D06D3394F}
  9
$EXTNAMES
290
     1
  9
$PSVPSCALE
 40
0.0
  9
$OLESTARTUP
290
     0
  0
ENDSEC
  0
SECTION
  2
CLASSES
  0
CLASS
  1
DICTIONARYVAR
  2
AcDbDictionaryVar
  3
ObjectDBX Classes
 90
        0
280
     0
281
     0
  0
CLASS
  1
ACDBDICTIONARYWDFLT
  2
AcDbDictionaryWithDefault
  3
ObjectDBX Classes
 90
        0
280
     0
281
     0
  0
CLASS
  1
MATERIAL
  2
AcDbMaterial
  3
ObjectDBX Classes
 90
     1024
280
     0
281
     0
  0
CLASS
  1
VISUALSTYLE
  2
AcDbVisualStyle
  3
ObjectDBX Classes
 90
     4095
280
     0
281
     0
  0
CLASS
  1
TABLESTYLE
  2
AcDbTableStyle
  3
ObjectDBX Classes
 90
     4095
280
     0
281
     0
  0
CLASS
  1
ACDBPLACEHOLDER
  2
AcDbPlaceHolder
  3
ObjectDBX Classes
 90
        0
280
     0
281
     0
  0
CLASS
  1
LAYOUT
  2
AcDbLayout
  3
ObjectDBX Classes
 90
        0
280
     0
281
     0
  0
ENDSEC
  0
SECTION
  2
TABLES
  0
TABLE
  2
VPORT
  5
8
330
0
100
AcDbSymbolTable
 70
     1
  0
VPORT
  5
7F27
330
8
100
AcDbSymbolTableRecord
100
AcDbViewportTableRecord
  2
*ACTIVE
 70
     0
 10
0.0
 20
0.0
 11
1.0
 21
1.0
 12
4624.281402431276
 22
-132.6754266951829
 13
0.0
 23
0.0
 14
1.0
 24
1.0
 15
10.0
 25
10.0
 16
0.0
 26
0.0
 36
1.0
 17
0.0
 27
0.0
 37
0.0
 40
8556.917257151546
 41
2.024350649350649
 42
50.0
 43
0.0
 44
0.0
 50
0.0
 51
0.0
 71
     0
 72
   100
 73
     1
 74
     1
 75
     0
 76
     0
 77
     0
 78
     0
281
     0
 65
     1
110
0.0
120
0.0
130
0.0
111
1.0
121
0.0
131
0.0
112
0.0
122
1.0
132
0.0
 79
     0
146
0.0
  0
ENDTAB
  0
TABLE
  2
LTYPE
  5
5
330
0
100
AcDbSymbolTable
 70
     3
  0
LTYPE
  5
12
330
5
100
AcDbSymbolTableRecord
100
AcDbLinetypeTableRecord
  2
BYBLOCK
 70
     0
  3

 72
    65
 73
     0
 40
0.0
  0
LTYPE
  5
13
330
5
100
AcDbSymbolTableRecord
100
AcDbLinetypeTableRecord
  2
BYLAYER
 70
     0
  3

 72
    65
 73
     0
 40
0.0
  0
LTYPE
  5
14
330
5
100
AcDbSymbolTableRecord
100
AcDbLinetypeTableRecord
  2
CONTINUOUS
 70
     0
  3
Ausgezogene Linie
 72
    65
 73
     0
 40
0.0
  0
LTYPE
  5
5F03
330
5
100
AcDbSymbolTableRecord
100
AcDbLinetypeTableRecord
  2
CENTRO
 70
     0
  3
____ _ ____ _ ____ _ ____ _ ____ _ ____ _ ____ 
 72
    65
 73
     4
 40
2.0
 49
1.25
 74
     0
 49
-0.25
 74
     0
 49
0.25
 74
     0
 49
-0.25
 74
     0
  0
LTYPE
  5
6B38
330
5
100
AcDbSymbolTableRecord
100
AcDbLinetypeTableRecord
  2
RAYITAS
 70
     0
  3
__ __ __ __ __ __ __ __ __ __ __ __ __ __ __ __
 72
    65
 73
     2
 40
0.375
 49
0.25
 74
     0
 49
-0.125
 74
     0
  0
ENDTAB
  0
TABLE
  2
LAYER
  5
2
330
0
100
AcDbSymbolTable
 70
     8
  0
LAYER
  5
F
330
2
100
AcDbSymbolTableRecord
100
AcDbLayerTableRecord
  2
0
 70
     0
 62
     7
  6
CONTINUOUS
370
    -3
390
7F2A
  0
LAYER
  5
27
330
2
100
AcDbSymbolTableRecord
100
AcDbLayerTableRecord
  2
CAJETIN
 70
     0
 62
     4
  6
CONTINUOUS
370
    -3
390
7F2A
  0
LAYER
  5
689
330
2
100
AcDbSymbolTableRecord
100
AcDbLayerTableRecord
  2
COTAS
 70
     0
 62
     3
  6
CONTINUOUS
370
    -3
390
7F2A
  0
LAYER
  5
8CA
330
2
100
AcDbSymbolTableRecord
100
AcDbLayerTableRecord
  2
DEFPOINTS
 70
     0
 62
     7
  6
CONTINUOUS
290
     0
370
    -3
390
7F2A
  0
LAYER
  5
5F04
330
2
100
AcDbSymbolTableRecord
100
AcDbLayerTableRecord
  2
EJES
 70
     0
 62
     2
  6
CENTRO
370
    -3
390
7F2A
  0
LAYER
  5
5F06
330
2
100
AcDbSymbolTableRecord
100
AcDbLayerTableRecord
  2
TEXTO-MODIF
 70
     0
 62
    11
  6
CONTINUOUS
370
    -3
390
7F2A
  0
LAYER
  5
6B3A
330
2
100
AcDbSymbolTableRecord
100
AcDbLayerTableRecord
  2
OCULTO
 70
     0
 62
     1
  6
RAYITAS
370
    -3
390
7F2A
  0
LAYER
  5
6B3C
330
2
100
AcDbSymbolTableRecord
100
AcDbLayerTableRecord
  2
1
 70
     0
 62
     7
  6
CONTINUOUS
370
    -3
390
7F2A
  0
ENDTAB
  0
TABLE
  2
STYLE
  5
3
330
0
100
AcDbSymbolTable
 70
     3
  0
STYLE
  5
10
330
3
100
AcDbSymbolTableRecord
100
AcDbTextStyleTableRecord
  2
STANDARD
 70
     0
 40
0.0
 41
1.0
 50
0.0
 71
     0
 42
3.5
  3
txt.shx
  4

  0
STYLE
  5
1F
330
3
100
AcDbSymbolTableRecord
100
AcDbTextStyleTableRecord
  2
ROMANS
 70
     0
 40
0.0
 41
1.0
 50
0.0
 71
     0
 42
3.0
  3
romans
  4

  0
STYLE
  5
8D1
330
3
100
AcDbSymbolTableRecord
100
AcDbTextStyleTableRecord
  2
KK
 70
     0
 40
0.0
 41
1.0
 50
0.0
 71
     0
 42
2.75
  3
ISOCP.SHX
  4

  0
ENDTAB
  0
TABLE
  2
VIEW
  5
6
330
0
100
AcDbSymbolTable
 70
     0
  0
ENDTAB
  0
TABLE
  2
UCS
  5
7
330
0
100
AcDbSymbolTable
 70
     0
  0
ENDTAB
  0
TABLE
  2
APPID
  5
9
330
0
100
AcDbSymbolTable
 70
     1
  0
APPID
  5
11
330
9
100
AcDbSymbolTableRecord
100
AcDbRegAppTableRecord
  2
ACAD
 70
     0
  0
ENDTAB
  0
TABLE
  2
DIMSTYLE
  5
A
330
0
100
AcDbSymbolTable
 70
     1
100
AcDbDimStyleTable
 71
     0
  0
DIMSTYLE
105
357
102
{ACAD_REACTORS
330
7D86
330
7DA0
330
7DAE
330
7DBC
330
7DCA
330
7DD8
330
7E00
330
7F1F
102
}
330
A
100
AcDbSymbolTableRecord
100
AcDbDimStyleTableRecord
  2
STANDARD
 70
     0
340
10
  0
ENDTAB
  0
TABLE
  2
BLOCK_RECORD
  5
1
330
0
100
AcDbSymbolTable
 70
     9
  0
BLOCK_RECORD
  5
18
330
1
100
AcDbSymbolTableRecord
100
AcDbBlockTableRecord
  2
*MODEL_SPACE
340
7F46
  0
BLOCK_RECORD
  5
15
330
1
100
AcDbSymbolTableRecord
100
AcDbBlockTableRecord
  2
*PAPER_SPACE
340
7F47
  0
BLOCK_RECORD
  5
7D79
330
1
100
AcDbSymbolTableRecord
100
AcDbBlockTableRecord
  2
*D1
340
0
  0
BLOCK_RECORD
  5
7D93
330
1
100
AcDbSymbolTableRecord
100
AcDbBlockTableRecord
  2
*D2
340
0
  0
BLOCK_RECORD
  5
7DA1
330
1
100
AcDbSymbolTableRecord
100
AcDbBlockTableRecord
  2
*D3
340
0
  0
BLOCK_RECORD
  5
7DAF
330
1
100
AcDbSymbolTableRecord
100
AcDbBlockTableRecord
  2
*D4
340
0
  0
BLOCK_RECORD
  5
7DBD
330
1
100
AcDbSymbolTableRecord
100
AcDbBlockTableRecord
  2
*D5
340
0
  0
BLOCK_RECORD
  5
7DCB
330
1
100
AcDbSymbolTableRecord
100
AcDbBlockTableRecord
  2
*D6
340
0
  0
BLOCK_RECORD
  5
7DF3
330
1
100
AcDbSymbolTableRecord
100
AcDbBlockTableRecord
  2
*D7
340
0
  0
BLOCK_RECORD
  5
7F12
330
1
100
AcDbSymbolTableRecord
100
AcDbBlockTableRecord
  2
*D8
340
0
  0
ENDTAB
  0
ENDSEC
  0
SECTION
  2
BLOCKS
  0
BLOCK
  5
2A
330
18
100
AcDbEntity
  8
0
100
AcDbBlockBegin
  2
*MODEL_SPACE
 70
     0
 10
0.0
 20
0.0
 30
0.0
  3
*MODEL_SPACE
  1

  0
ENDBLK
  5
2B
330
18
100
AcDbEntity
  8
0
100
AcDbBlockEnd
  0
BLOCK
  5
28
330
15
100
AcDbEntity
 67
     1
  8
0
100
AcDbBlockBegin
  2
*PAPER_SPACE
 70
     0
 10
0.0
 20
0.0
 30
0.0
  3
*PAPER_SPACE
  1

  0
ENDBLK
  5
29
330
15
100
AcDbEntity
 67
     1
  8
0
100
AcDbBlockEnd
  0
BLOCK
  5
7E4D
330
7D79
100
AcDbEntity
  8
0
100
AcDbBlockBegin
  2
*D1
 70
     1
 10
0.0
 20
0.0
 30
0.0
  3
*D1
  1

  0
LINE
  5
7E4E
330
7D79
100
AcDbEntity
  8
0
  6
ByBlock
100
AcDbLine
 10
2225.231300729245
 20
1958.457951393581
 30
0.0
 11
2225.231300729245
 21
1832.769118619113
 31
0.0
  0
LINE
  5
7E4F
330
7D79
100
AcDbEntity
  8
0
  6
ByBlock
100
AcDbLine
 10
2611.279791711945
 20
1958.45795139358
 30
0.0
 11
2611.279791711945
 21
1832.769118619113
 31
0.0
  0
LINE
  5
7E50
330
7D79
100
AcDbEntity
  8
0
  6
ByBlock
100
AcDbLine
 10
2255.231300729246
 20
1852.769118619113
 30
0.0
 11
2357.053574968298
 21
1852.769118619113
 31
0.0
  0
LINE
  5
7E51
330
7D79
100
AcDbEntity
  8
0
  6
ByBlock
100
AcDbLine
 10
2581.279791711946
 20
1852.769118619113
 30
0.0
 11
2481.339289254013
 21
1852.769118619113
 31
0.0
  0
SOLID
  5
7E52
330
7D79
100
AcDbEntity
  8
0
  6
ByBlock
100
AcDbTrace
 10
2255.231300729246
 20
1857.769118619113
 30
0.0
 11
2255.231300729246
 21
1847.769118619113
 31
0.0
 12
2225.231300729245
 22
1852.769118619113
 32
0.0
 13
2225.231300729245
 23
1852.769118619113
 33
0.0
  0
SOLID
  5
7E53
330
7D79
100
AcDbEntity
  8
0
  6
ByBlock
100
AcDbTrace
 10
2581.279791711946
 20
1857.769118619113
 30
0.0
 11
2581.279791711946
 21
1847.769118619113
 31
0.0
 12
2611.279791711945
 22
1852.769118619113
 32
0.0
 13
2611.279791711945
 23
1852.769118619113
 33
0.0
  0
MTEXT
  5
7E54
330
7D79
100
AcDbEntity
  8
0
  6
ByBlock
 62
     6
100
AcDbMText
 10
2419.196432111156
 20
1852.769118619113
 30
0.0
 40
25.0
 41
0.0
 71
     5
 72
     1
  1
\A1;380
  7
ROMANS
 73
     1
 44
1.0
1001
ACAD
1000
MTEXTBEGIN
1070
    73
1070
     1
1070
    44
1040
1.0
1070
    74
1070
     0
1000
MTEXTEND
  0
POINT
  5
7E55
330
7D79
100
AcDbEntity
  8
DEFPOINTS
  6
ByBlock
 62
     0
100
AcDbPoint
 10
2225.231300729245
 20
1958.457951393581
 30
0.0
  0
POINT
  5
7E56
330
7D79
100
AcDbEntity
  8
DEFPOINTS
  6
ByBlock
 62
     0
100
AcDbPoint
 10
2611.279791711945
 20
1958.45795139358
 30
0.0
  0
POINT
  5
7E57
330
7D79
100
AcDbEntity
  8
DEFPOINTS
  6
ByBlock
 62
     0
100
AcDbPoint
 10
2611.279791711945
 20
1852.769118619113
 30
0.0
  0
ENDBLK
  5
7E58
330
7D79
100
AcDbEntity
  8
0
100
AcDbBlockEnd
  0
BLOCK
  5
7F06
330
7D93
100
AcDbEntity
  8
0
100
AcDbBlockBegin
  2
*D2
 70
     1
 10
0.0
 20
0.0
 30
0.0
  3
*D2
  1

  0
LINE
  5
7F07
330
7D93
100
AcDbEntity
  8
0
  6
ByBlock
100
AcDbLine
 10
2484.637762374106
 20
1938.457951393553
 30
0.0
 11
2185.924684108289
 21
1938.457951393553
 31
0.0
  0
LINE
  5
7F08
330
7D93
100
AcDbEntity
  8
0
  6
ByBlock
100
AcDbLine
 10
2301.613516882883
 20
2168.457951393591
 30
0.0
 11
2185.924684108289
 21
2168.457951393591
 31
0.0
  0
LINE
  5
7F09
330
7D93
100
AcDbEntity
  8
0
  6
ByBlock
100
AcDbLine
 10
2205.92468410829
 20
1968.457951393553
 30
0.0
 11
2205.92468410829
 21
1998.457951393553
 31
0.0
  0
LINE
  5
7F0A
330
7D93
100
AcDbEntity
  8
0
  6
ByBlock
100
AcDbLine
 10
2205.92468410829
 20
2138.45795139359
 30
0.0
 11
2205.92468410829
 21
2108.457951393591
 31
0.0
  0
SOLID
  5
7F0B
330
7D93
100
AcDbEntity
  8
0
  6
ByBlock
100
AcDbTrace
 10
2200.92468410829
 20
1968.457951393553
 30
0.0
 11
2210.92468410829
 21
1968.457951393553
 31
0.0
 12
2205.92468410829
 22
1938.457951393553
 32
0.0
 13
2205.92468410829
 23
1938.457951393553
 33
0.0
  0
SOLID
  5
7F0C
330
7D93
100
AcDbEntity
  8
0
  6
ByBlock
100
AcDbTrace
 10
2200.92468410829
 20
2138.45795139359
 30
0.0
 11
2210.92468410829
 21
2138.45795139359
 31
0.0
 12
2205.92468410829
 22
2168.457951393591
 32
0.0
 13
2205.92468410829
 23
2168.457951393591
 33
0.0
  0
MTEXT
  5
7F0D
330
7D93
100
AcDbEntity
  8
0
  6
ByBlock
 62
     6
100
AcDbMText
 10
2205.92468410829
 20
2059.044255426967
 30
0.0
 40
25.0
 41
0.0
 71
     5
 72
     1
  1
\A1;220
  7
ROMANS
 11
0.0000000000000001
 21
1.0
 31
0.0
 73
     1
 44
1.0
1001
ACAD
1000
MTEXTBEGIN
1070
    73
1070
     1
1070
    44
1040
1.0
1070
    74
1070
     0
1000
MTEXTEND
  0
POINT
  5
7F0E
330
7D93
100
AcDbEntity
  8
DEFPOINTS
  6
ByBlock
 62
     0
100
AcDbPoint
 10
2484.637762374106
 20
1938.457951393553
 30
0.0
  0
POINT
  5
7F0F
330
7D93
100
AcDbEntity
  8
DEFPOINTS
  6
ByBlock
 62
     0
100
AcDbPoint
 10
2301.613516882883
 20
2168.457951393591
 30
0.0
  0
POINT
  5
7F10
330
7D93
100
AcDbEntity
  8
DEFPOINTS
  6
ByBlock
 62
     0
100
AcDbPoint
 10
2205.92468410829
 20
2168.457951393591
 30
0.0
  0
ENDBLK
  5
7F11
330
7D93
100
AcDbEntity
  8
0
100
AcDbBlockEnd
  0
BLOCK
  5
7E76
330
7DA1
100
AcDbEntity
  8
0
100
AcDbBlockBegin
  2
*D3
 70
     1
 10
0.0
 20
0.0
 30
0.0
  3
*D3
  1

  0
LINE
  5
7E77
330
7DA1
100
AcDbEntity
  8
0
  6
ByBlock
100
AcDbLine
 10
3169.569752503918
 20
2475.83686121497
 30
0.0
 11
3169.569752503918
 21
2329.012865757022
 31
0.0
  0
LINE
  5
7E78
330
7DA1
100
AcDbEntity
  8
0
  6
ByBlock
100
AcDbLine
 10
3269.569752503936
 20
2399.907657218739
 30
0.0
 11
3269.569752503936
 21
2329.012865757022
 31
0.0
  0
LINE
  5
7E79
330
7DA1
100
AcDbEntity
  8
0
  6
ByBlock
100
AcDbLine
 10
3139.569752503918
 20
2349.012865757022
 30
0.0
 11
3109.569752503918
 21
2349.012865757022
 31
0.0
  0
LINE
  5
7E7A
330
7DA1
100
AcDbEntity
  8
0
  6
ByBlock
100
AcDbLine
 10
3299.569752503936
 20
2349.012865757022
 30
0.0
 11
3329.569752503936
 21
2349.012865757022
 31
0.0
  0
SOLID
  5
7E7B
330
7DA1
100
AcDbEntity
  8
0
  6
ByBlock
100
AcDbTrace
 10
3139.569752503918
 20
2354.012865757022
 30
0.0
 11
3139.569752503918
 21
2344.012865757022
 31
0.0
 12
3169.569752503918
 22
2349.012865757022
 32
0.0
 13
3169.569752503918
 23
2349.012865757022
 33
0.0
  0
SOLID
  5
7E7C
330
7DA1
100
AcDbEntity
  8
0
  6
ByBlock
100
AcDbTrace
 10
3299.569752503936
 20
2354.012865757022
 30
0.0
 11
3299.569752503936
 21
2344.012865757022
 31
0.0
 12
3269.569752503936
 22
2349.012865757022
 32
0.0
 13
3269.569752503936
 23
2349.012865757022
 33
0.0
  0
MTEXT
  5
7E7D
330
7DA1
100
AcDbEntity
  8
0
  6
ByBlock
 62
     6
100
AcDbMText
 10
3219.569752503927
 20
2349.012865757022
 30
0.0
 40
25.0
 41
0.0
 71
     5
 72
     1
  1
\A1;100
  7
ROMANS
 73
     1
 44
1.0
1001
ACAD
1000
MTEXTBEGIN
1070
    73
1070
     1
1070
    44
1040
1.0
1070
    74
1070
     0
1000
MTEXTEND
  0
POINT
  5
7E7E
330
7DA1
100
AcDbEntity
  8
DEFPOINTS
  6
ByBlock
 62
     0
100
AcDbPoint
 10
3169.569752503918
 20
2475.83686121497
 30
0.0
  0
POINT
  5
7E7F
330
7DA1
100
AcDbEntity
  8
DEFPOINTS
  6
ByBlock
 62
     0
100
AcDbPoint
 10
3269.569752503936
 20
2399.907657218739
 30
0.0
  0
POINT
  5
7E80
330
7DA1
100
AcDbEntity
  8
DEFPOINTS
  6
ByBlock
 62
     0
100
AcDbPoint
 10
3269.569752503936
 20
2349.012865757022
 30
0.0
  0
ENDBLK
  5
7E81
330
7DA1
100
AcDbEntity
  8
0
100
AcDbBlockEnd
  0
BLOCK
  5
7E69
330
7DAF
100
AcDbEntity
  8
0
100
AcDbBlockBegin
  2
*D4
 70
     1
 10
0.0
 20
0.0
 30
0.0
  3
*D4
  1

  0
LINE
  5
7E6A
330
7DAF
100
AcDbEntity
  8
0
  6
ByBlock
100
AcDbLine
 10
3189.569732442739
 20
2455.836861214988
 30
0.0
 11
3063.880919729495
 21
2455.836861214988
 31
0.0
  0
LINE
  5
7E6B
330
7DAF
100
AcDbEntity
  8
0
  6
ByBlock
100
AcDbLine
 10
3169.569752503936
 20
2715.836861214979
 30
0.0
 11
3063.880919729495
 21
2715.836861214979
 31
0.0
  0
LINE
  5
7E6C
330
7DAF
100
AcDbEntity
  8
0
  6
ByBlock
100
AcDbLine
 10
3083.880919729495
 20
2485.836861214988
 30
0.0
 11
3083.880919729495
 21
2529.943895277682
 31
0.0
  0
LINE
  5
7E6D
330
7DAF
100
AcDbEntity
  8
0
  6
ByBlock
100
AcDbLine
 10
3083.880919729495
 20
2685.836861214979
 30
0.0
 11
3083.880919729495
 21
2654.229609563396
 31
0.0
  0
SOLID
  5
7E6E
330
7DAF
100
AcDbEntity
  8
0
  6
ByBlock
100
AcDbTrace
 10
3078.880919729496
 20
2485.836861214988
 30
0.0
 11
3088.880919729496
 21
2485.836861214988
 31
0.0
 12
3083.880919729495
 22
2455.836861214988
 32
0.0
 13
3083.880919729495
 23
2455.836861214988
 33
0.0
  0
SOLID
  5
7E6F
330
7DAF
100
AcDbEntity
  8
0
  6
ByBlock
100
AcDbTrace
 10
3078.880919729496
 20
2685.836861214979
 30
0.0
 11
3088.880919729496
 21
2685.836861214979
 31
0.0
 12
3083.880919729495
 22
2715.836861214979
 32
0.0
 13
3083.880919729495
 23
2715.836861214979
 33
0.0
  0
MTEXT
  5
7E70
330
7DAF
100
AcDbEntity
  8
0
  6
ByBlock
 62
     6
100
AcDbMText
 10
3083.880919729495
 20
2592.086752420539
 30
0.0
 40
25.0
 41
0.0
 71
     5
 72
     1
  1
\A1;260
  7
ROMANS
 11
0.0000000000000001
 21
1.0
 31
0.0
 73
     1
 44
1.0
1001
ACAD
1000
MTEXTBEGIN
1070
    73
1070
     1
1070
    44
1040
1.0
1070
    74
1070
     0
1000
MTEXTEND
  0
POINT
  5
7E71
330
7DAF
100
AcDbEntity
  8
DEFPOINTS
  6
ByBlock
 62
     0
100
AcDbPoint
 10
3189.569732442739
 20
2455.836861214988
 30
0.0
  0
POINT
  5
7E72
330
7DAF
100
AcDbEntity
  8
DEFPOINTS
  6
ByBlock
 62
     0
100
AcDbPoint
 10
3169.569752503936
 20
2715.836861214979
 30
0.0
  0
POINT
  5
7E73
330
7DAF
100
AcDbEntity
  8
DEFPOINTS
  6
ByBlock
 62
     0
100
AcDbPoint
 10
3083.880919729495
 20
2715.836861214979
 30
0.0
  0
ENDBLK
  5
7E74
330
7DAF
100
AcDbEntity
  8
0
100
AcDbBlockEnd
  0
BLOCK
  5
7E5C
330
7DBD
100
AcDbEntity
  8
0
100
AcDbBlockBegin
  2
*D5
 70
     1
 10
0.0
 20
0.0
 30
0.0
  3
*D5
  1

  0
LINE
  5
7E5D
330
7DBD
100
AcDbEntity
  8
0
  6
ByBlock
100
AcDbLine
 10
2293.255546220596
 20
2700.878299537739
 30
0.0
 11
2293.255546220596
 21
2821.525693989419
 31
0.0
  0
LINE
  5
7E5E
330
7DBD
100
AcDbEntity
  8
0
  6
ByBlock
100
AcDbLine
 10
2543.255546220596
 20
2700.878299537739
 30
0.0
 11
2543.255546220596
 21
2821.525693989419
 31
0.0
  0
LINE
  5
7E5F
330
7DBD
100
AcDbEntity
  8
0
  6
ByBlock
100
AcDbLine
 10
2323.255546220595
 20
2801.52569398942
 30
0.0
 11
2355.621999310056
 21
2801.52569398942
 31
0.0
  0
LINE
  5
7E60
330
7DBD
100
AcDbEntity
  8
0
  6
ByBlock
100
AcDbLine
 10
2513.255546220596
 20
2801.52569398942
 30
0.0
 11
2479.907713595771
 21
2801.52569398942
 31
0.0
  0
SOLID
  5
7E61
330
7DBD
100
AcDbEntity
  8
0
  6
ByBlock
100
AcDbTrace
 10
2323.255546220595
 20
2806.525693989419
 30
0.0
 11
2323.255546220595
 21
2796.52569398942
 31
0.0
 12
2293.255546220596
 22
2801.52569398942
 32
0.0
 13
2293.255546220596
 23
2801.52569398942
 33
0.0
  0
SOLID
  5
7E62
330
7DBD
100
AcDbEntity
  8
0
  6
ByBlock
100
AcDbTrace
 10
2513.255546220596
 20
2806.525693989419
 30
0.0
 11
2513.255546220596
 21
2796.52569398942
 31
0.0
 12
2543.255546220596
 22
2801.52569398942
 32
0.0
 13
2543.255546220596
 23
2801.52569398942
 33
0.0
  0
MTEXT
  5
7E63
330
7DBD
100
AcDbEntity
  8
0
  6
ByBlock
 62
     6
100
AcDbMText
 10
2417.764856452914
 20
2801.52569398942
 30
0.0
 40
25.0
 41
0.0
 71
     5
 72
     1
  1
\A1;250
  7
ROMANS
 73
     1
 44
1.0
1001
ACAD
1000
MTEXTBEGIN
1070
    73
1070
     1
1070
    44
1040
1.0
1070
    74
1070
     0
1000
MTEXTEND
  0
POINT
  5
7E64
330
7DBD
100
AcDbEntity
  8
DEFPOINTS
  6
ByBlock
 62
     0
100
AcDbPoint
 10
2293.255546220596
 20
2700.878299537739
 30
0.0
  0
POINT
  5
7E65
330
7DBD
100
AcDbEntity
  8
DEFPOINTS
  6
ByBlock
 62
     0
100
AcDbPoint
 10
2543.255546220596
 20
2700.878299537739
 30
0.0
  0
POINT
  5
7E66
330
7DBD
100
AcDbEntity
  8
DEFPOINTS
  6
ByBlock
 62
     0
100
AcDbPoint
 10
2543.255546220596
 20
2801.52569398942
 30
0.0
  0
ENDBLK
  5
7E67
330
7DBD
100
AcDbEntity
  8
0
100
AcDbBlockEnd
  0
BLOCK
  5
7E3F
330
7DCB
100
AcDbEntity
  8
0
100
AcDbBlockBegin
  2
*D6
 70
     1
 10
0.0
 20
0.0
 30
0.0
  3
*D6
  1

  0
LINE
  5
7E40
330
7DCB
100
AcDbEntity
  8
0
  6
ByBlock
100
AcDbLine
 10
2611.279791712011
 20
2715.836861214979
 30
0.0
 11
2716.968624486386
 21
2715.836861214979
 31
0.0
  0
LINE
  5
7E41
330
7DCB
100
AcDbEntity
  8
0
  6
ByBlock
100
AcDbLine
 10
2558.296984543356
 20
2685.836861214979
 30
0.0
 11
2716.968624486386
 21
2685.836861214979
 31
0.0
  0
LINE
  5
7E42
330
7DCB
100
AcDbEntity
  8
0
  6
ByBlock
100
AcDbLine
 10
2696.968624486386
 20
2745.836861214979
 30
0.0
 11
2696.968624486386
 21
2775.836861214979
 31
0.0
  0
LINE
  5
7E43
330
7DCB
100
AcDbEntity
  8
0
  6
ByBlock
100
AcDbLine
 10
2696.968624486386
 20
2655.836861214979
 30
0.0
 11
2696.968624486386
 21
2625.836861214979
 31
0.0
  0
LINE
  5
7E44
330
7DCB
100
AcDbEntity
  8
0
  6
ByBlock
100
AcDbLine
 10
2696.968624486386
 20
2715.836861214979
 30
0.0
 11
2696.968624486386
 21
2685.836861214979
 31
0.0
  0
SOLID
  5
7E45
330
7DCB
100
AcDbEntity
  8
0
  6
ByBlock
100
AcDbTrace
 10
2691.968624486386
 20
2745.836861214979
 30
0.0
 11
2701.968624486386
 21
2745.836861214979
 31
0.0
 12
2696.968624486386
 22
2715.836861214979
 32
0.0
 13
2696.968624486386
 23
2715.836861214979
 33
0.0
  0
SOLID
  5
7E46
330
7DCB
100
AcDbEntity
  8
0
  6
ByBlock
100
AcDbTrace
 10
2691.968624486386
 20
2655.836861214979
 30
0.0
 11
2701.968624486386
 21
2655.836861214979
 31
0.0
 12
2696.968624486386
 22
2685.836861214979
 32
0.0
 13
2696.968624486386
 23
2685.836861214979
 33
0.0
  0
MTEXT
  5
7E47
330
7DCB
100
AcDbEntity
  8
0
  6
ByBlock
 62
     6
100
AcDbMText
 10
2696.968624486386
 20
2575.598765976883
 30
0.0
 40
25.0
 41
0.0
 71
     5
 72
     1
  1
\A1;30
  7
ROMANS
 11
0.0000000000000001
 21
1.0
 31
0.0
 73
     1
 44
1.0
1001
ACAD
1000
MTEXTBEGIN
1070
    73
1070
     1
1070
    44
1040
1.0
1070
    74
1070
     0
1000
MTEXTEND
  0
POINT
  5
7E48
330
7DCB
100
AcDbEntity
  8
DEFPOINTS
  6
ByBlock
 62
     0
100
AcDbPoint
 10
2611.279791712011
 20
2715.836861214979
 30
0.0
  0
POINT
  5
7E49
330
7DCB
100
AcDbEntity
  8
DEFPOINTS
  6
ByBlock
 62
     0
100
AcDbPoint
 10
2558.296984543356
 20
2685.836861214979
 30
0.0
  0
POINT
  5
7E4A
330
7DCB
100
AcDbEntity
  8
DEFPOINTS
  6
ByBlock
 62
     0
100
AcDbPoint
 10
2696.968624486386
 20
2685.836861214979
 30
0.0
  0
ENDBLK
  5
7E4B
330
7DCB
100
AcDbEntity
  8
0
100
AcDbBlockEnd
  0
BLOCK
  5
7EA8
330
7DF3
100
AcDbEntity
  8
0
100
AcDbBlockBegin
  2
*D7
 70
     1
 10
0.0
 20
0.0
 30
0.0
  3
*D7
  1

  0
LINE
  5
7EA9
330
7DF3
100
AcDbEntity
  8
0
  6
ByBlock
100
AcDbLine
 10
3247.069752503936
 20
2455.836861214989
 30
0.0
 11
3247.069752503936
 21
2390.8712667693
 31
0.0
  0
LINE
  5
7EAA
330
7DF3
100
AcDbEntity
  8
0
  6
ByBlock
100
AcDbLine
 10
3292.069752503936
 20
2455.836861214989
 30
0.0
 11
3292.069752503936
 21
2390.8712667693
 31
0.0
  0
LINE
  5
7EAB
330
7DF3
100
AcDbEntity
  8
0
  6
ByBlock
100
AcDbLine
 10
3217.069752503936
 20
2410.8712667693
 30
0.0
 11
3187.069752503936
 21
2410.8712667693
 31
0.0
  0
LINE
  5
7EAC
330
7DF3
100
AcDbEntity
  8
0
  6
ByBlock
100
AcDbLine
 10
3322.069752503936
 20
2410.8712667693
 30
0.0
 11
3352.069752503936
 21
2410.8712667693
 31
0.0
  0
LINE
  5
7EAD
330
7DF3
100
AcDbEntity
  8
0
  6
ByBlock
100
AcDbLine
 10
3247.069752503936
 20
2410.8712667693
 30
0.0
 11
3292.069752503936
 21
2410.8712667693
 31
0.0
  0
SOLID
  5
7EAE
330
7DF3
100
AcDbEntity
  8
0
  6
ByBlock
100
AcDbTrace
 10
3217.069752503936
 20
2415.8712667693
 30
0.0
 11
3217.069752503936
 21
2405.8712667693
 31
0.0
 12
3247.069752503936
 22
2410.8712667693
 32
0.0
 13
3247.069752503936
 23
2410.8712667693
 33
0.0
  0
SOLID
  5
7EAF
330
7DF3
100
AcDbEntity
  8
0
  6
ByBlock
100
AcDbTrace
 10
3322.069752503936
 20
2415.8712667693
 30
0.0
 11
3322.069752503936
 21
2405.8712667693
 31
0.0
 12
3292.069752503936
 22
2410.8712667693
 32
0.0
 13
3292.069752503936
 23
2410.8712667693
 33
0.0
  0
MTEXT
  5
7EB0
330
7DF3
100
AcDbEntity
  8
0
  6
ByBlock
 62
     6
100
AcDbMText
 10
3413.617371551556
 20
2410.8712667693
 30
0.0
 40
25.0
 41
0.0
 71
     5
 72
     1
  1
\A1;\U+220545
  7
ROMANS
 73
     1
 44
1.0
1001
ACAD
1000
MTEXTBEGIN
1070
    73
1070
     1
1070
    44
1040
1.0
1070
    74
1070
     0
1000
MTEXTEND
  0
POINT
  5
7EB1
330
7DF3
100
AcDbEntity
  8
DEFPOINTS
  6
ByBlock
 62
     0
100
AcDbPoint
 10
3247.069752503936
 20
2455.836861214989
 30
0.0
  0
POINT
  5
7EB2
330
7DF3
100
AcDbEntity
  8
DEFPOINTS
  6
ByBlock
 62
     0
100
AcDbPoint
 10
3292.069752503936
 20
2455.836861214989
 30
0.0
  0
POINT
  5
7EB3
330
7DF3
100
AcDbEntity
  8
DEFPOINTS
  6
ByBlock
 62
     0
100
AcDbPoint
 10
3292.069752503936
 20
2410.8712667693
 30
0.0
  0
ENDBLK
  5
7EB4
330
7DF3
100
AcDbEntity
  8
0
100
AcDbBlockEnd
  0
BLOCK
  5
7F13
330
7F12
100
AcDbEntity
  8
0
100
AcDbBlockBegin
  2
*D8
 70
     1
 10
0.0
 20
0.0
 30
0.0
  3
*D8
  1

  0
LINE
  5
7F14
330
7F12
100
AcDbEntity
  8
0
  6
ByBlock
100
AcDbLine
 10
3235.95196865742
 20
2715.836861214979
 30
0.0
 11
3235.95196865742
 21
2793.174976421832
 31
0.0
  0
LINE
  5
7F15
330
7F12
100
AcDbEntity
  8
0
  6
ByBlock
100
AcDbLine
 10
3300.951968657475
 20
2706.336861214996
 30
0.0
 11
3300.951968657475
 21
2793.174976421832
 31
0.0
  0
LINE
  5
7F16
330
7F12
100
AcDbEntity
  8
0
  6
ByBlock
100
AcDbLine
 10
3205.951968657421
 20
2773.174976421832
 30
0.0
 11
3175.95196865742
 21
2773.174976421832
 31
0.0
  0
LINE
  5
7F17
330
7F12
100
AcDbEntity
  8
0
  6
ByBlock
100
AcDbLine
 10
3330.951968657475
 20
2773.174976421832
 30
0.0
 11
3360.951968657475
 21
2773.174976421832
 31
0.0
  0
SOLID
  5
7F18
330
7F12
100
AcDbEntity
  8
0
  6
ByBlock
100
AcDbTrace
 10
3205.951968657421
 20
2778.174976421832
 30
0.0
 11
3205.951968657421
 21
2768.174976421832
 31
0.0
 12
3235.95196865742
 22
2773.174976421832
 32
0.0
 13
3235.95196865742
 23
2773.174976421832
 33
0.0
  0
SOLID
  5
7F19
330
7F12
100
AcDbEntity
  8
0
  6
ByBlock
100
AcDbTrace
 10
3330.951968657475
 20
2778.174976421832
 30
0.0
 11
3330.951968657475
 21
2768.174976421832
 31
0.0
 12
3300.951968657475
 22
2773.174976421832
 32
0.0
 13
3300.951968657475
 23
2773.174976421832
 33
0.0
  0
MTEXT
  5
7F1A
330
7F12
100
AcDbEntity
  8
0
  6
ByBlock
 62
     6
100
AcDbMText
 10
3268.451968657448
 20
2773.174976421832
 30
0.0
 40
25.0
 41
0.0
 71
     5
 72
     1
  1
\A1;65
  7
ROMANS
 73
     1
 44
1.0
1001
ACAD
1000
MTEXTBEGIN
1070
    73
1070
     1
1070
    44
1040
1.0
1070
    74
1070
     0
1000
MTEXTEND
  0
POINT
  5
7F1B
330
7F12
100
AcDbEntity
  8
DEFPOINTS
  6
ByBlock
 62
     0
100
AcDbPoint
 10
3235.95196865742
 20
2715.836861214979
 30
0.0
  0
POINT
  5
7F1C
330
7F12
100
AcDbEntity
  8
DEFPOINTS
  6
ByBlock
 62
     0
100
AcDbPoint
 10
3300.951968657475
 20
2706.336861214996
 30
0.0
  0
POINT
  5
7F1D
330
7F12
100
AcDbEntity
  8
DEFPOINTS
  6
ByBlock
 62
     0
100
AcDbPoint
 10
3300.951968657475
 20
2773.174976421832
 30
0.0
  0
ENDBLK
  5
7F1E
330
7F12
100
AcDbEntity
  8
0
100
AcDbBlockEnd
  0
ENDSEC
  0
SECTION
  2
ENTITIES
  0
ARC
  5
7D0E
330
18
100
AcDbEntity
  8
0
100
AcDbCircle
 10
2577.662007865359
 20
2555.836861215011
 30
0.0
 40
100.0
100
AcDbArc
 50
269.9999999999998
 51
359.9999999999999
  0
LINE
  5
7D0F
330
18
100
AcDbEntity
  8
0
100
AcDbLine
 10
2391.613516882801
 20
2455.836861214988
 30
0.0
 11
2577.662007865359
 21
2455.836861214988
 31
0.0
  0
LINE
  5
7D10
330
18
100
AcDbEntity
  8
0
100
AcDbLine
 10
2677.662007865495
 20
2715.836861214979
 30
0.0
 11
2677.662007865495
 21
2555.836861215011
 31
0.0
  0
LINE
  5
7D11
330
18
100
AcDbEntity
  8
0
100
AcDbLine
 10
2291.613516882665
 20
2715.836861214979
 30
0.0
 11
2677.662007865495
 21
2715.836861214979
 31
0.0
  0
LINE
  5
7D12
330
18
100
AcDbEntity
  8
0
100
AcDbLine
 10
2291.613516882665
 20
2715.836861214979
 30
0.0
 11
2291.613516882665
 21
2555.836861215011
 31
0.0
  0
ARC
  5
7D13
330
18
100
AcDbEntity
  8
0
100
AcDbCircle
 10
2391.613516882801
 20
2555.836861215011
 30
0.0
 40
100.0
100
AcDbArc
 50
180.0
 51
269.9999999999998
  0
CIRCLE
  5
7D2A
330
18
100
AcDbEntity
  8
0
  6
ByBlock
 62
     0
100
AcDbCircle
 10
2484.63776237408
 20
2068.457951393682
 30
0.0
 40
22.5
  0
ARC
  5
7D2B
330
18
100
AcDbEntity
  8
0
  6
ByBlock
 62
     0
100
AcDbCircle
 10
2484.63776237408
 20
3450.327427786149
 30
0.0
 40
1511.869476392595
100
AcDbArc
 50
263.6839607590307
 51
276.3160392409694
  0
ARC
  5
7D2C
330
18
100
AcDbEntity
  8
0
  6
ByBlock
 62
     0
100
AcDbCircle
 10
2484.63776237408
 20
3450.327427786149
 30
0.0
 40
1501.869476392595
100
AcDbArc
 50
263.6839607590392
 51
276.3160392409608
  0
LINE
  5
7D35
330
18
100
AcDbEntity
  8
0
  6
ByBlock
 62
     0
100
AcDbLine
 10
2667.662007865277
 20
1977.452606069758
 30
0.0
 11
2667.662007865276
 21
2138.4579513936
 31
0.0
  0
LINE
  5
7D36
330
18
100
AcDbEntity
  8
0
  6
ByBlock
 62
     0
100
AcDbLine
 10
2301.613516882883
 20
2138.4579513936
 30
0.0
 11
2301.613516882883
 21
1977.452606069758
 31
0.0
  0
LINE
  5
7D37
330
18
100
AcDbEntity
  8
0
  6
ByBlock
 62
     0
100
AcDbLine
 10
2647.662007865277
 20
2158.4579513936
 30
0.0
 11
2321.613516882883
 21
2158.4579513936
 31
0.0
  0
LINE
  5
7D38
330
18
100
AcDbEntity
  8
0
  6
ByBlock
 62
     0
100
AcDbLine
 10
2677.662007865495
 20
1977.452606069782
 30
0.0
 11
2677.662007865495
 21
2138.45795139359
 31
0.0
  0
LINE
  5
7D39
330
18
100
AcDbEntity
  8
0
  6
ByBlock
 62
     0
100
AcDbLine
 10
2291.613516882665
 20
2138.45795139359
 30
0.0
 11
2291.613516882665
 21
1977.452606069782
 31
0.0
  0
LINE
  5
7D3A
330
18
100
AcDbEntity
  8
0
  6
ByBlock
 62
     0
100
AcDbLine
 10
2647.662007865495
 20
2168.45795139359
 30
0.0
 11
2321.613516882665
 21
2168.457951393591
 31
0.0
  0
CIRCLE
  5
7D3B
330
18
100
AcDbEntity
  8
0
  6
ByBlock
 62
     0
100
AcDbCircle
 10
3335.95196865733
 20
2678.836861215001
 30
0.0
 40
4.0
  0
CIRCLE
  5
7D3C
330
18
100
AcDbEntity
  8
0
  6
ByBlock
 62
     0
100
AcDbCircle
 10
3335.95196865733
 20
2698.836861214983
 30
0.0
 40
4.0
  0
CIRCLE
  5
7D3D
330
18
100
AcDbEntity
  8
0
  6
ByBlock
 62
     0
100
AcDbCircle
 10
3300.951968657475
 20
2683.836861214997
 30
0.0
 40
9.000000000000001
  0
ARC
  5
7D3E
102
{ACAD_REACTORS
330
7EE7
102
}
330
18
100
AcDbEntity
  8
0
  6
ByBlock
 62
     0
100
AcDbCircle
 10
3377.412983403221
 20
2475.83686121497
 30
0.0
 40
20.0
100
AcDbArc
 50
270.0
 51
317.3227684190618
  0
ARC
  5
7D3F
102
{ACAD_REACTORS
330
7EE7
102
}
330
18
100
AcDbEntity
  8
0
  6
ByBlock
 62
     0
100
AcDbCircle
 10
3214.896491734609
 20
2625.683234065531
 30
0.0
 40
241.0555258767848
100
AcDbArc
 50
317.3227684190625
 51
0.0365151881398037
  0
ARC
  5
7D40
102
{ACAD_REACTORS
330
7EE7
102
}
330
18
100
AcDbEntity
  8
0
  6
ByBlock
 62
     0
100
AcDbCircle
 10
3255.951968657402
 20
2475.83686121497
 30
0.0
 40
20.0
100
AcDbArc
 50
180.0
 51
269.9999999999995
  0
LINE
  5
7D41
102
{ACAD_REACTORS
330
7EE7
102
}
330
18
100
AcDbEntity
  8
0
  6
ByBlock
 62
     0
100
AcDbLine
 10
3255.951948596223
 20
2455.836861214988
 30
0.0
 11
3313.45196865742
 21
2455.836861214988
 31
0.0
  0
LINE
  5
7D42
102
{ACAD_REACTORS
330
7EE7
102
}
330
18
100
AcDbEntity
  8
0
100
AcDbLine
 10
3235.95196865742
 20
2715.836861214979
 30
0.0
 11
3455.95196865722
 21
2715.836861214979
 31
0.0
  0
LINE
  5
7D43
102
{ACAD_REACTORS
330
7EE7
102
}
330
18
100
AcDbEntity
  8
0
  6
ByBlock
 62
     0
100
AcDbLine
 10
3235.95196865742
 20
2715.836861214979
 30
0.0
 11
3235.95196865742
 21
2475.83686121497
 31
0.0
  0
LINE
  5
7D44
102
{ACAD_REACTORS
330
7EE7
102
}
330
18
100
AcDbEntity
  8
0
  6
ByBlock
 62
     0
100
AcDbLine
 10
3455.95196865722
 20
2715.836861214979
 30
0.0
 11
3455.95196865722
 21
2625.529606913273
 31
0.0
  0
LINE
  5
7D47
330
18
100
AcDbEntity
  8
0
 62
     4
100
AcDbLine
 10
3313.45196865742
 20
2455.836861214988
 30
0.0
 11
3358.451968657421
 21
2455.836861214988
 31
0.0
  0
LINE
  5
7D48
102
{ACAD_REACTORS
330
7EE7
102
}
330
18
100
AcDbEntity
  8
0
  6
ByBlock
 62
     0
100
AcDbLine
 10
3313.451968657421
 20
2465.836861214988
 30
0.0
 11
3313.45196865742
 21
2455.836861214988
 31
0.0
  0
LINE
  5
7D49
102
{ACAD_REACTORS
330
7EE7
102
}
330
18
100
AcDbEntity
  8
0
  6
ByBlock
 62
     0
100
AcDbLine
 10
3358.451968657421
 20
2465.836861214988
 30
0.0
 11
3358.451968657421
 21
2455.836861214988
 31
0.0
  0
LINE
  5
7D4A
330
18
100
AcDbEntity
  8
0
 62
     4
100
AcDbLine
 10
3313.45196865742
 20
2465.836861214988
 30
0.0
 11
3358.451968657421
 21
2465.836861214988
 31
0.0
  0
LINE
  5
7D50
102
{ACAD_REACTORS
330
7EE7
102
}
330
18
100
AcDbEntity
  8
0
  6
ByBlock
 62
     0
100
AcDbLine
 10
3255.951948596223
 20
2465.836861214988
 30
0.0
 11
3313.451968657421
 21
2465.836861214988
 31
0.0
  0
LINE
  5
7D52
102
{ACAD_REACTORS
330
7EE7
102
}
330
18
100
AcDbEntity
  8
0
  6
ByBlock
 62
     0
100
AcDbLine
 10
3358.451968657421
 20
2465.836861214988
 30
0.0
 11
3377.412983403221
 21
2465.836861214988
 31
0.0
  0
ARC
  5
7D53
102
{ACAD_REACTORS
330
7EE7
102
}
330
18
100
AcDbEntity
  8
0
  6
ByBlock
 62
     0
100
AcDbCircle
 10
3377.412983403221
 20
2475.83686121497
 30
0.0
 40
10.0
100
AcDbArc
 50
270.0
 51
317.3227684190618
  0
ARC
  5
7D54
102
{ACAD_REACTORS
330
7EE7
102
}
330
18
100
AcDbEntity
  8
0
  6
ByBlock
 62
     0
100
AcDbCircle
 10
3214.896491734609
 20
2625.683234065531
 30
0.0
 40
231.0555258767847
100
AcDbArc
 50
317.3227684190625
 51
0.0365151881398037
  0
ARC
  5
7D55
102
{ACAD_REACTORS
330
7EE7
102
}
330
18
100
AcDbEntity
  8
0
  6
ByBlock
 62
     0
100
AcDbCircle
 10
3255.951968657402
 20
2475.83686121497
 30
0.0
 40
10.0
100
AcDbArc
 50
180.0
 51
269.9999999999995
  0
LINE
  5
7D56
102
{ACAD_REACTORS
330
7EE7
102
}
330
18
100
AcDbEntity
  8
0
  6
ByBlock
 62
     0
100
AcDbLine
 10
3245.951968657421
 20
2715.836861214979
 30
0.0
 11
3245.951968657421
 21
2475.83686121497
 31
0.0
  0
LINE
  5
7D57
102
{ACAD_REACTORS
330
7EE7
102
}
330
18
100
AcDbEntity
  8
0
  6
ByBlock
 62
     0
100
AcDbLine
 10
3445.95196865722
 20
2715.836861214979
 30
0.0
 11
3445.95196865722
 21
2625.529606913273
 31
0.0
  0
LINE
  5
7D58
102
{ACAD_REACTORS
330
7EE7
102
}
330
18
100
AcDbEntity
  8
0
  6
ByBlock
 62
     0
100
AcDbLine
 10
3358.451968657421
 20
2455.836861214988
 30
0.0
 11
3377.412983403221
 21
2455.836861214988
 31
0.0
  0
LINE
  5
7D5E
330
18
100
AcDbEntity
  8
EJES
100
AcDbLine
 10
2344.59632405132
 20
2685.836861214979
 30
0.0
 11
2374.67920069684
 21
2685.836861214979
 31
0.0
  0
LINE
  5
7D62
330
18
100
AcDbEntity
  8
EJES
100
AcDbLine
 10
2359.63776237408
 20
2700.878299537739
 30
0.0
 11
2359.63776237408
 21
2670.795422892219
 31
0.0
  0
LINE
  5
7D63
330
18
100
AcDbEntity
  8
OCULTO
100
AcDbLine
 10
2354.637762374081
 20
2690.836861214979
 30
0.0
 11
2354.63776237408
 21
2680.83686121498
 31
0.0
  0
LINE
  5
7D64
330
18
100
AcDbEntity
  8
OCULTO
100
AcDbLine
 10
2364.63776237408
 20
2690.836861214979
 30
0.0
 11
2364.63776237408
 21
2680.83686121498
 31
0.0
  0
ARC
  5
7D65
330
18
100
AcDbEntity
  8
OCULTO
 48
1.5
100
AcDbCircle
 10
2359.63776237408
 20
2680.83686121498
 30
0.0
 40
5.000000000000023
100
AcDbArc
 50
180.0
 51
0.0
  0
ARC
  5
7D66
330
18
100
AcDbEntity
  8
OCULTO
 48
1.5
100
AcDbCircle
 10
2359.63776237408
 20
2690.836861214979
 30
0.0
 40
5.000000000000413
100
AcDbArc
 50
0.0
 51
180.0
  0
LINE
  5
7D68
330
18
100
AcDbEntity
  8
EJES
100
AcDbLine
 10
2609.63776237408
 20
2700.878299537739
 30
0.0
 11
2609.63776237408
 21
2670.795422892219
 31
0.0
  0
LINE
  5
7D69
330
18
100
AcDbEntity
  8
OCULTO
100
AcDbLine
 10
2614.63776237408
 20
2690.836861214979
 30
0.0
 11
2614.63776237408
 21
2680.83686121498
 31
0.0
  0
LINE
  5
7D6A
330
18
100
AcDbEntity
  8
OCULTO
100
AcDbLine
 10
2604.63776237408
 20
2690.836861214979
 30
0.0
 11
2604.63776237408
 21
2680.83686121498
 31
0.0
  0
LINE
  5
7D6B
330
18
100
AcDbEntity
  8
EJES
100
AcDbLine
 10
2624.67920069684
 20
2685.836861214979
 30
0.0
 11
2594.59632405132
 21
2685.836861214979
 31
0.0
  0
ARC
  5
7D6C
330
18
100
AcDbEntity
  8
OCULTO
 48
1.5
100
AcDbCircle
 10
2609.63776237408
 20
2680.83686121498
 30
0.0
 40
5.000000000000023
100
AcDbArc
 50
180.0
 51
0.000000000000007
  0
ARC
  5
7D6D
330
18
100
AcDbEntity
  8
OCULTO
 48
1.5
100
AcDbCircle
 10
2609.63776237408
 20
2690.836861214979
 30
0.0
 40
5.000000000000413
100
AcDbArc
 50
0.000000000000007
 51
180.0
  0
LINE
  5
7D6E
330
18
100
AcDbEntity
  8
EJES
100
AcDbLine
 10
3320.951968657329
 20
2698.836861214983
 30
0.0
 11
3350.951968657329
 21
2698.836861214983
 31
0.0
  0
LINE
  5
7D6F
330
18
100
AcDbEntity
  8
EJES
100
AcDbLine
 10
3335.95196865733
 20
2683.836861214983
 30
0.0
 11
3335.95196865733
 21
2713.836861214983
 31
0.0
  0
LINE
  5
7D70
330
18
100
AcDbEntity
  8
EJES
100
AcDbLine
 10
3320.951968657329
 20
2678.836861215001
 30
0.0
 11
3350.951968657329
 21
2678.836861215001
 31
0.0
  0
LINE
  5
7D71
330
18
100
AcDbEntity
  8
EJES
100
AcDbLine
 10
3335.95196865733
 20
2663.836861215001
 30
0.0
 11
3335.95196865733
 21
2693.836861215001
 31
0.0
  0
LINE
  5
7D72
330
18
100
AcDbEntity
  8
EJES
100
AcDbLine
 10
3278.451968657475
 20
2683.836861214997
 30
0.0
 11
3323.451968657475
 21
2683.836861214997
 31
0.0
  0
LINE
  5
7D73
330
18
100
AcDbEntity
  8
EJES
100
AcDbLine
 10
3300.951968657475
 20
2661.336861214997
 30
0.0
 11
3300.951968657475
 21
2706.336861214996
 31
0.0
  0
LINE
  5
7D74
330
18
100
AcDbEntity
  8
EJES
 48
1.5
100
AcDbLine
 10
3335.951968657421
 20
2499.884642515307
 30
0.0
 11
3335.951968657421
 21
2421.78907991467
 31
0.0
  0
LINE
  5
7D76
330
18
100
AcDbEntity
  8
EJES
 48
1.5
100
AcDbLine
 10
2439.63776237408
 20
2068.457951393682
 30
0.0
 11
2529.63776237408
 21
2068.457951393682
 31
0.0
  0
LINE
  5
7D77
330
18
100
AcDbEntity
  8
EJES
 48
1.5
100
AcDbLine
 10
2484.63776237408
 20
2023.457951393682
 30
0.0
 11
2484.63776237408
 21
2113.457951393681
 31
0.0
  0
DIMENSION
  5
7D86
330
18
100
AcDbEntity
  8
COTAS
100
AcDbDimension
  2
*D1
 10
2677.66200786543
 20
1852.769118619113
 30
0.0
 11
2485.57864826464
 21
1852.769118619113
 31
0.0
 12
66.38221615348448
 22
0.0
 32
0.0
 70
   160
  1
380
 71
     5
 42
-1.0
  3
STANDARD
100
AcDbAlignedDimension
 13
2291.61351688273
 23
1958.457951393581
 33
0.0
 14
2677.66200786543
 24
1958.45795139358
 34
0.0
100
AcDbRotatedDimension
1001
ACAD
1000
DSTYLE
1002
{
1070
    40
1040
10.0
1070
    41
1040
3.0
1070
    42
1040
0.0
1070
    43
1040
7.0
1070
    44
1040
2.0
1070
    73
1070
     0
1070
    74
1070
     0
1070
   140
1040
2.5
1070
   141
1040
1.5
1070
   147
1040
3.0
1070
   176
1070
   256
1070
   177
1070
   256
1070
   178
1070
     6
1070
   271
1070
     0
1070
   272
1070
     1
1070
   284
1070
     8
1070
   288
1070
     1
1070
   289
1070
     0
1070
   340
1005
1F
1002
}
  0
DIMENSION
  5
7DA0
330
18
100
AcDbEntity
  8
COTAS
100
AcDbDimension
  2
*D2
 10
2205.92468410829
 20
2168.457951393591
 30
0.0
 11
2205.92468410829
 21
2059.044255426967
 31
0.0
 70
   160
  1
220
 71
     5
 42
-1.0
  3
STANDARD
100
AcDbAlignedDimension
 13
2484.637762374106
 23
1938.457951393553
 33
0.0
 14
2301.613516882883
 24
2168.457951393591
 34
0.0
 50
270.0
100
AcDbRotatedDimension
1001
ACAD
1000
DSTYLE
1002
{
1070
    40
1040
10.0
1070
    41
1040
3.0
1070
    42
1040
0.0
1070
    43
1040
7.0
1070
    44
1040
2.0
1070
    73
1070
     0
1070
    74
1070
     0
1070
   140
1040
2.5
1070
   141
1040
1.5
1070
   147
1040
3.0
1070
   176
1070
   256
1070
   177
1070
   256
1070
   178
1070
     6
1070
   271
1070
     0
1070
   272
1070
     1
1070
   284
1070
     8
1070
   288
1070
     1
1070
   289
1070
     0
1070
   340
1005
1F
1002
}
  0
DIMENSION
  5
7DAE
330
18
100
AcDbEntity
  8
COTAS
100
AcDbDimension
  2
*D3
 10
3335.951968657421
 20
2349.012865757022
 30
0.0
 11
3285.951968657411
 21
2349.012865757022
 31
0.0
 12
66.38221615348448
 22
0.0
 32
0.0
 70
   160
 71
     5
 42
-1.0
  3
STANDARD
100
AcDbAlignedDimension
 13
3235.951968657403
 23
2475.83686121497
 33
0.0
 14
3335.951968657421
 24
2399.907657218739
 34
0.0
100
AcDbRotatedDimension
1001
ACAD
1000
DSTYLE
1002
{
1070
    40
1040
10.0
1070
    41
1040
3.0
1070
    42
1040
0.0
1070
    43
1040
7.0
1070
    44
1040
2.0
1070
    73
1070
     0
1070
    74
1070
     0
1070
   140
1040
2.5
1070
   141
1040
1.5
1070
   147
1040
3.0
1070
   176
1070
   256
1070
   177
1070
   256
1070
   178
1070
     6
1070
   271
1070
     0
1070
   272
1070
     1
1070
   284
1070
     8
1070
   288
1070
     1
1070
   289
1070
     0
1070
   340
1005
1F
1002
}
  0
DIMENSION
  5
7DBC
330
18
100
AcDbEntity
  8
COTAS
100
AcDbDimension
  2
*D4
 10
3150.26313588298
 20
2715.836861214979
 30
0.0
 11
3150.26313588298
 21
2592.086752420539
 31
0.0
 12
66.38221615348448
 22
0.0
 32
0.0
 70
   160
 71
     5
 42
-1.0
  3
STANDARD
100
AcDbAlignedDimension
 13
3255.951948596223
 23
2455.836861214988
 33
0.0
 14
3235.95196865742
 24
2715.836861214979
 34
0.0
 50
90.0
100
AcDbRotatedDimension
1001
ACAD
1000
DSTYLE
1002
{
1070
    40
1040
10.0
1070
    41
1040
3.0
1070
    42
1040
0.0
1070
    43
1040
7.0
1070
    44
1040
2.0
1070
    73
1070
     0
1070
    74
1070
     0
1070
   140
1040
2.5
1070
   141
1040
1.5
1070
   147
1040
3.0
1070
   176
1070
   256
1070
   177
1070
   256
1070
   178
1070
     6
1070
   271
1070
     0
1070
   272
1070
     1
1070
   284
1070
     8
1070
   288
1070
     1
1070
   289
1070
     0
1070
   340
1005
1F
1002
}
  0
DIMENSION
  5
7DCA
330
18
100
AcDbEntity
  8
COTAS
100
AcDbDimension
  2
*D5
 10
2609.63776237408
 20
2801.52569398942
 30
0.0
 11
2484.147072606398
 21
2801.52569398942
 31
0.0
 12
66.38221615348448
 22
0.0
 32
0.0
 70
   160
 71
     5
 42
-1.0
  3
STANDARD
100
AcDbAlignedDimension
 13
2359.63776237408
 23
2700.878299537739
 33
0.0
 14
2609.63776237408
 24
2700.878299537739
 34
0.0
100
AcDbRotatedDimension
1001
ACAD
1000
DSTYLE
1002
{
1070
    40
1040
10.0
1070
    41
1040
3.0
1070
    42
1040
0.0
1070
    43
1040
7.0
1070
    44
1040
2.0
1070
    73
1070
     0
1070
    74
1070
     0
1070
   140
1040
2.5
1070
   141
1040
1.5
1070
   147
1040
3.0
1070
   176
1070
   256
1070
   177
1070
   256
1070
   178
1070
     6
1070
   271
1070
     0
1070
   272
1070
     1
1070
   284
1070
     8
1070
   288
1070
     1
1070
   289
1070
     0
1070
   340
1005
1F
1002
}
  0
DIMENSION
  5
7DD8
330
18
100
AcDbEntity
  8
COTAS
100
AcDbDimension
  2
*D6
 10
2763.350840639871
 20
2685.836861214979
 30
0.0
 11
2763.350840639871
 21
2575.598765976883
 31
0.0
 12
66.38221615348448
 22
0.0
 32
0.0
 70
   160
 71
     5
 42
-1.0
  3
STANDARD
100
AcDbAlignedDimension
 13
2677.662007865495
 23
2715.836861214979
 33
0.0
 14
2624.67920069684
 24
2685.836861214979
 34
0.0
 50
90.0
100
AcDbRotatedDimension
1001
ACAD
1000
DSTYLE
1002
{
1070
    40
1040
10.0
1070
    41
1040
3.0
1070
    42
1040
0.0
1070
    43
1040
7.0
1070
    44
1040
2.0
1070
    73
1070
     0
1070
    74
1070
     0
1070
   140
1040
2.5
1070
   141
1040
1.5
1070
   147
1040
3.0
1070
   172
1070
     1
1070
   176
1070
   256
1070
   177
1070
   256
1070
   178
1070
     6
1070
   271
1070
     0
1070
   272
1070
     1
1070
   284
1070
     8
1070
   288
1070
     1
1070
   289
1070
     0
1070
   340
1005
1F
1002
}
  0
DIMENSION
  5
7E00
330
18
100
AcDbEntity
  8
COTAS
100
AcDbDimension
  2
*D7
 10
3358.451968657421
 20
2410.8712667693
 30
0.0
 11
3479.99958770504
 21
2410.8712667693
 31
0.0
 12
66.38221615348448
 22
0.0
 32
0.0
 70
   160
  1
%%C45
 71
     5
 42
-1.0
  3
STANDARD
100
AcDbAlignedDimension
 13
3313.45196865742
 23
2455.836861214989
 33
0.0
 14
3358.451968657421
 24
2455.836861214989
 34
0.0
100
AcDbRotatedDimension
1001
ACAD
1000
DSTYLE
1002
{
1070
    40
1040
10.0
1070
    41
1040
3.0
1070
    42
1040
0.0
1070
    43
1040
7.0
1070
    44
1040
2.0
1070
    73
1070
     0
1070
    74
1070
     0
1070
   140
1040
2.5
1070
   141
1040
1.5
1070
   147
1040
3.0
1070
   172
1070
     1
1070
   176
1070
   256
1070
   177
1070
   256
1070
   178
1070
     6
1070
   271
1070
     0
1070
   272
1070
     1
1070
   284
1070
     8
1070
   288
1070
     1
1070
   289
1070
     0
1070
   340
1005
1F
1002
}
  0
LINE
  5
7E86
330
18
100
AcDbEntity
  8
EJES
 48
1.5
100
AcDbLine
 10
2484.63776237408
 20
2410.836861214988
 30
0.0
 11
2484.63776237408
 21
2500.836861214988
 31
0.0
  0
HATCH
  5
7EE7
330
18
100
AcDbEntity
  8
0
 62
     4
100
AcDbHatch
 10
0.0
 20
0.0
 30
0.0
210
0.0
220
0.0
230
1.0
  2
SOLID
 70
     1
 71
     1
 91
        2
 92
        7
 72
     1
 73
     1
 93
       10
 10
3455.95196865722
 20
2715.83686121498
 42
0.0
 10
3445.95196865722
 20
2715.83686121498
 42
0.0
 10
3445.95196865722
 20
2625.833641053923
 42
-0.1885656650399912
 10
3384.764865711157
 20
2469.058231078264
 42
-0.209471622733735
 10
3377.412983403222
 20
2465.836861214988
 42
0.0
 10
3358.451968657421
 20
2465.836861214987
 42
0.0
 10
3358.451968657421
 20
2455.836861214988
 42
0.0
 10
3377.412983403221
 20
2455.836861214988
 42
0.209468835051124
 10
3392.116603199229
 20
2462.279443876316
 42
0.1882323325187591
 10
3455.95196865722
 20
2625.529606770081
 42
0.0
 97
       10
330
7D42
330
7D57
330
7D54
330
7D53
330
7D52
330
7D49
330
7D58
330
7D3E
330
7D3F
330
7D44
 92
        7
 72
     1
 73
     1
 93
        8
 10
3313.451968657421
 20
2455.836861214988
 42
0.0
 10
3313.45196865742
 20
2465.836861214988
 42
0.0
 10
3255.951968657402
 20
2465.836861214988
 42
-0.4142135623725599
 10
3245.951968657421
 20
2475.836861214988
 42
0.0
 10
3245.951968657421
 20
2715.836861214979
 42
0.0
 10
3235.95196865742
 20
2715.836861214979
 42
0.0
 10
3235.95196865742
 20
2475.83686121497
 42
0.4142135623728263
 10
3255.95196865742
 20
2455.836861214988
 42
0.0
 97
        8
330
7D50
330
7D55
330
7D56
330
7D42
330
7D43
330
7D40
330
7D41
330
7D48
 75
     0
 76
     1
 47
0.6508799091915717
 98
        2
 10
3451.358667208486
 20
2639.117704095998
 10
3276.810193694434
 20
2459.474846592804
  0
ARC
  5
7EFE
330
18
100
AcDbEntity
  8
0
  6
ByBlock
 62
     0
100
AcDbCircle
 10
2647.662007865495
 20
1977.452606069782
 30
0.0
 40
30.0
100
AcDbArc
 50
276.3160392409692
 51
0.0
  0
ARC
  5
7EFF
330
18
100
AcDbEntity
  8
0
  6
ByBlock
 62
     0
100
AcDbCircle
 10
2321.613516882665
 20
1977.452606069782
 30
0.0
 40
30.0
100
AcDbArc
 50
180.0
 51
263.6839607590299
  0
ARC
  5
7F00
330
18
100
AcDbEntity
  8
0
  6
ByBlock
 62
     0
100
AcDbCircle
 10
2321.613516882665
 20
2138.45795139359
 30
0.0
 40
30.0
100
AcDbArc
 50
90.0
 51
180.0
  0
ARC
  5
7F01
330
18
100
AcDbEntity
  8
0
  6
ByBlock
 62
     0
100
AcDbCircle
 10
2647.662007865495
 20
2138.45795139359
 30
0.0
 40
30.0
100
AcDbArc
 50
0.0
 51
90.0
  0
ARC
  5
7F02
330
18
100
AcDbEntity
  8
0
  6
ByBlock
 62
     0
100
AcDbCircle
 10
2321.613516882883
 20
1977.452606069758
 30
0.0
 40
20.0
100
AcDbArc
 50
180.0
 51
263.6839607590382
  0
ARC
  5
7F03
330
18
100
AcDbEntity
  8
0
  6
ByBlock
 62
     0
100
AcDbCircle
 10
2647.662007865277
 20
2138.4579513936
 30
0.0
 40
20.0
100
AcDbArc
 50
0.0
 51
90.0
  0
ARC
  5
7F04
330
18
100
AcDbEntity
  8
0
  6
ByBlock
 62
     0
100
AcDbCircle
 10
2321.613516882883
 20
2138.4579513936
 30
0.0
 40
20.0
100
AcDbArc
 50
90.0
 51
180.0
  0
ARC
  5
7F05
330
18
100
AcDbEntity
  8
0
  6
ByBlock
 62
     0
100
AcDbCircle
 10
2647.662007865277
 20
1977.452606069758
 30
0.0
 40
20.0
100
AcDbArc
 50
276.3160392409578
 51
359.9999999999993
  0
DIMENSION
  5
7F1F
330
18
100
AcDbEntity
  8
COTAS
100
AcDbDimension
  2
*D8
 10
3300.951968657475
 20
2773.174976421832
 30
0.0
 11
3268.451968657448
 21
2773.174976421832
 31
0.0
 70
   160
 71
     5
 42
-1.0
  3
STANDARD
100
AcDbAlignedDimension
 13
3235.95196865742
 23
2715.836861214979
 33
0.0
 14
3300.951968657475
 24
2706.336861214996
 34
0.0
100
AcDbRotatedDimension
1001
ACAD
1000
DSTYLE
1002
{
1070
    40
1040
10.0
1070
    41
1040
3.0
1070
    42
1040
0.0
1070
    43
1040
7.0
1070
    44
1040
2.0
1070
    73
1070
     0
1070
    74
1070
     0
1070
   140
1040
2.5
1070
   141
1040
1.5
1070
   147
1040
3.0
1070
   176
1070
   256
1070
   177
1070
   256
1070
   178
1070
     6
1070
   271
1070
     0
1070
   272
1070
     1
1070
   284
1070
     8
1070
   288
1070
     1
1070
   289
1070
     0
1070
   340
1005
1F
1002
}
  0
ENDSEC
  0
SECTION
  2
OBJECTS
  0
DICTIONARY
  5
C
330
0
100
AcDbDictionary
281
     1
  3
ACAD_COLOR
350
7F40
  3
ACAD_GROUP
350
D
  3
ACAD_LAYOUT
350
7F45
  3
ACAD_MATERIAL
350
7F2B
  3
ACAD_MLINESTYLE
350
E
  3
ACAD_PLOTSETTINGS
350
7F44
  3
ACAD_PLOTSTYLENAME
350
7F29
  3
ACAD_TABLESTYLE
350
7F41
  3
ACAD_VISUALSTYLE
350
7F2F
  3
ACDBVARIABLEDICTIONARY
350
7EC4
  3
DWGPROPS
350
7F55
  0
DICTIONARY
  5
7F40
102
{ACAD_REACTORS
330
C
102
}
330
C
100
AcDbDictionary
281
     1
  0
DICTIONARY
  5
D
102
{ACAD_REACTORS
330
C
102
}
330
C
100
AcDbDictionary
281
     1
  0
DICTIONARY
  5
7F45
102
{ACAD_REACTORS
330
C
102
}
330
C
100
AcDbDictionary
281
     1
  3
Model
350
7F46
  3
Presentación1
350
7F47
  0
DICTIONARY
  5
7F2B
102
{ACAD_REACTORS
330
C
102
}
330
C
100
AcDbDictionary
281
     1
  3
ByBlock
350
7F2D
  3
ByLayer
350
7F2C
  3
Global
350
7F2E
  0
DICTIONARY
  5
E
102
{ACAD_REACTORS
330
C
102
}
330
C
100
AcDbDictionary
281
     1
  3
STANDARD
350
1B
  0
DICTIONARY
  5
7F44
102
{ACAD_REACTORS
330
C
102
}
330
C
100
AcDbDictionary
281
     1
  0
ACDBDICTIONARYWDFLT
  5
7F29
102
{ACAD_REACTORS
330
C
102
}
330
C
100
AcDbDictionary
281
     1
  3
Normal
350
7F2A
100
AcDbDictionaryWithDefault
340
7F2A
  0
DICTIONARY
  5
7F41
102
{ACAD_REACTORS
330
C
102
}
330
C
100
AcDbDictionary
281
     1
  3
Standard
350
7F42
  0
DICTIONARY
  5
7F2F
102
{ACAD_REACTORS
330
C
102
}
330
C
100
AcDbDictionary
281
     1
  3
2dWireframe
350
7F35
  3
3D Hidden
350
7F37
  3
3dWireframe
350
7F36
  3
Basic
350
7F34
  3
Brighten
350
7F3B
  3
ColorChange
350
7F3F
  3
Conceptual
350
7F38
  3
Dim
350
7F3A
  3
Facepattern
350
7F3E
  3
Flat
350
7F30
  3
FlatWithEdges
350
7F31
  3
Gouraud
350
7F32
  3
GouraudWithEdges
350
7F33
  3
Linepattern
350
7F3D
  3
Realistic
350
7F39
  3
Thicken
350
7F3C
  0
DICTIONARY
  5
7EC4
102
{ACAD_REACTORS
330
C
102
}
330
C
100
AcDbDictionary
281
     1
  3
CTABLESTYLE
350
7F4C
  3
DIMASSOC
350
7F54
  3
INDEXCTL
350
7F53
  3
SORTENTS
350
7EC5
  0
XRECORD
  5
7F55
102
{ACAD_REACTORS
330
C
102
}
330
C
100
AcDbXrecord
280
     1
  1
DWGPROPS COOKIE
  2

  3

  4

  6

  7

  8
Administrador
  9

300
=
301
=
302
=
303
=
304
=
305
=
306
=
307
=
308
=
309
=
 40
0.2716057754629629
 41
2450638.577684491
 42
2454469.788605706
  1

 90
        0
  0
LAYOUT
  5
7F46
102
{ACAD_XDICTIONARY
360
7F5E
102
}
102
{ACAD_REACTORS
330
7F45
102
}
330
7F45
100
AcDbPlotSettings
  1

  2
hp psc 1310 series
  4

  6

 40
0.0
 41
0.0
 42
0.0
 43
0.0
 44
0.0
 45
0.0
 46
0.0
 47
0.0
 48
0.0
 49
0.0
140
0.0
141
0.0
142
1.0
143
1.0
 70
  1712
 72
     0
 73
     0
 74
     0
  7

 75
     0
147
1.0
148
0.0
149
0.0
100
AcDbLayout
  1
Model
 70
     1
 71
     0
 10
0.0
 20
0.0
 11
12.0
 21
9.0
 12
0.0
 22
0.0
 32
0.0
 14
0.0
 24
0.0
 34
0.0
 15
0.0
 25
0.0
 35
0.0
146
0.0
 13
0.0
 23
0.0
 33
0.0
 16
1.0
 26
0.0
 36
0.0
 17
0.0
 27
1.0
 37
0.0
 76
     0
330
18
331
7F27
  0
LAYOUT
  5
7F47
102
{ACAD_XDICTIONARY
360
7F60
102
}
102
{ACAD_REACTORS
330
7F45
102
}
330
7F45
100
AcDbPlotSettings
  1

  2
hp psc 1310 series
  4

  6

 40
0.0
 41
0.0
 42
0.0
 43
0.0
 44
0.0
 45
0.0
 46
0.0
 47
0.0
 48
0.0
 49
0.0
140
0.0
141
0.0
142
1.0
143
1.0
 70
   688
 72
     0
 73
     0
 74
     5
  7

 75
    16
147
1.0
148
0.0
149
0.0
100
AcDbLayout
  1
Presentación1
 70
     0
 71
     1
 10
0.0
 20
0.0
 11
12.0
 21
9.0
 12
0.0
 22
0.0
 32
0.0
 14
1.000000000000000E+20
 24
1.000000000000000E+20
 34
1.000000000000000E+20
 15
-1.000000000000000E+20
 25
-1.000000000000000E+20
 35
-1.000000000000000E+20
146
0.0
 13
0.0
 23
0.0
 33
0.0
 16
1.0
 26
0.0
 36
0.0
 17
0.0
 27
1.0
 37
0.0
 76
     0
330
15
  0
MATERIAL
  5
7F2D
102
{ACAD_XDICTIONARY
360
7F58
102
}
102
{ACAD_REACTORS
330
7F2B
102
}
330
7F2B
100
AcDbMaterial
  1
ByBlock
  0
MATERIAL
  5
7F2C
102
{ACAD_XDICTIONARY
360
7F56
102
}
102
{ACAD_REACTORS
330
7F2B
102
}
330
7F2B
100
AcDbMaterial
  1
ByLayer
  0
MATERIAL
  5
7F2E
102
{ACAD_XDICTIONARY
360
7F5A
102
}
102
{ACAD_REACTORS
330
7F2B
102
}
330
7F2B
100
AcDbMaterial
  1
Global
  0
MLINESTYLE
  5
1B
102
{ACAD_REACTORS
330
E
102
}
330
E
100
AcDbMlineStyle
  2
STANDARD
 70
     0
  3

 62
     0
 51
90.0
 52
90.0
 71
     2
 49
0.5
 62
   256
  6
BYLAYER
 49
-0.5
 62
   256
  6
BYLAYER
  0
ACDBPLACEHOLDER
  5
7F2A
102
{ACAD_REACTORS
330
7F29
102
}
330
7F29
  0
TABLESTYLE
  5
7F42
102
{ACAD_XDICTIONARY
360
7F5C
102
}
102
{ACAD_REACTORS
330
7F41
102
}
330
7F41
100
AcDbTableStyle
  3
Standard
 70
     0
 71
     0
 40
0.06
 41
0.06
280
     0
281
     0
  7
STANDARD
140
0.18
170
     2
 62
     0
 63
     7
283
     0
274
    -2
284
     1
 64
     0
275
    -2
285
     1
 65
     0
276
    -2
286
     1
 66
     0
277
    -2
287
     1
 67
     0
278
    -2
288
     1
 68
     0
279
    -2
289
     1
 69
     0
  7
STANDARD
140
0.25
170
     5
 62
     0
 63
     7
283
     0
274
    -2
284
     1
 64
     0
275
    -2
285
     1
 65
     0
276
    -2
286
     1
 66
     0
277
    -2
287
     1
 67
     0
278
    -2
288
     1
 68
     0
279
    -2
289
     1
 69
     0
  7
STANDARD
140
0.18
170
     5
 62
     0
 63
     7
283
     0
274
    -2
284
     1
 64
     0
275
    -2
285
     1
 65
     0
276
    -2
286
     1
 66
     0
277
    -2
287
     1
 67
     0
278
    -2
288
     1
 68
     0
279
    -2
289
     1
 69
     0
  0
VISUALSTYLE
  5
7F35
102
{ACAD_REACTORS
330
7F2F
102
}
330
7F2F
100
AcDbVisualStyle
  2
2dWireframe
 70
     4
 71
     0
 72
     2
 73
     0
 90
        0
 40
-0.6
 41
-30.0
 62
     5
 63
     7
 74
     1
 91
        4
 64
     7
 65
   257
 75
     1
175
     1
 42
1.0
 92
        0
 66
   257
 43
1.0
 76
     1
 77
     6
 78
     2
 67
     7
 79
     5
170
     0
171
     0
290
     0
174
     0
 93
        1
 44
0.0
173
     0
291
     0
 45
0.0
1001
ACAD
1000
AcDbSavedByObjectVersion
1070
     0
  0
VISUALSTYLE
  5
7F37
102
{ACAD_REACTORS
330
7F2F
102
}
330
7F2F
100
AcDbVisualStyle
  2
3D Hidden
 70
     6
 71
     1
 72
     2
 73
     2
 90
        0
 40
-0.6
 41
-30.0
 62
     5
 63
     7
 74
     2
 91
        2
 64
     7
 65
   257
 75
     2
175
     1
 42
40.0
 92
        0
 66
   257
 43
1.0
 76
     1
 77
     6
 78
     2
 67
     7
 79
     3
170
     0
171
     0
290
     0
174
     0
 93
        1
 44
0.0
173
     0
291
     0
 45
0.0
1001
ACAD
1000
AcDbSavedByObjectVersion
1070
     0
  0
VISUALSTYLE
  5
7F36
102
{ACAD_REACTORS
330
7F2F
102
}
330
7F2F
100
AcDbVisualStyle
  2
3dWireframe
 70
     5
 71
     0
 72
     2
 73
     0
 90
        0
 40
-0.6
 41
-30.0
 62
     5
 63
     7
 74
     1
 91
        4
 64
     7
 65
   257
 75
     1
175
     1
 42
1.0
 92
        0
 66
   257
 43
1.0
 76
     1
 77
     6
 78
     2
 67
     7
 79
     5
170
     0
171
     0
290
     0
174
     0
 93
        1
 44
0.0
173
     0
291
     0
 45
0.0
1001
ACAD
1000
AcDbSavedByObjectVersion
1070
     0
  0
VISUALSTYLE
  5
7F34
102
{ACAD_REACTORS
330
7F2F
102
}
330
7F2F
100
AcDbVisualStyle
  2
Basic
 70
     7
 71
     1
 72
     0
 73
     1
 90
        0
 40
-0.6
 41
-30.0
 62
     5
 63
     7
 74
     0
 91
        4
 64
     7
 65
   257
 75
     1
175
     1
 42
1.0
 92
        8
 66
     7
 43
1.0
 76
     1
 77
     6
 78
     2
 67
     7
 79
     5
170
     0
171
     0
290
     0
174
     0
 93
        1
 44
0.0
173
     0
291
     1
 45
0.0
1001
ACAD
1000
AcDbSavedByObjectVersion
1070
     0
  0
VISUALSTYLE
  5
7F3B
102
{ACAD_REACTORS
330
7F2F
102
}
330
7F2F
100
AcDbVisualStyle
  2
Brighten
 70
    12
 71
     2
 72
     2
 73
     0
 90
        0
 40
-0.6
 41
-30.0
 62
     5
 63
     7
 74
     1
 91
        4
 64
     7
 65
   257
 75
     1
175
     1
 42
1.0
 92
        8
 66
     7
 43
1.0
 76
     1
 77
     6
 78
     2
 67
     7
 79
     5
170
     0
171
     0
290
     0
174
     0
 93
        1
 44
50.0
173
     0
291
     1
 45
0.0
1001
ACAD
1000
AcDbSavedByObjectVersion
1070
     0
  0
VISUALSTYLE
  5
7F3F
102
{ACAD_REACTORS
330
7F2F
102
}
330
7F2F
100
AcDbVisualStyle
  2
ColorChange
 70
    16
 71
     2
 72
     2
 73
     3
 90
        0
 40
-0.6
 41
-30.0
 62
     5
 63
     8
 74
     1
 91
        4
 64
     7
 65
   257
 75
     1
175
     1
 42
1.0
 92
        8
 66
     8
 43
1.0
 76
     1
 77
     6
 78
     2
 67
     7
 79
     5
170
     0
171
     0
290
     0
174
     0
 93
        1
 44
0.0
173
     0
291
     1
 45
0.0
1001
ACAD
1000
AcDbSavedByObjectVersion
1070
     0
  0
VISUALSTYLE
  5
7F38
102
{ACAD_REACTORS
330
7F2F
102
}
330
7F2F
100
AcDbVisualStyle
  2
Conceptual
 70
     9
 71
     3
 72
     2
 73
     0
 90
        0
 40
-0.6
 41
-30.0
 62
     5
 63
     7
 74
     2
 91
        2
 64
     7
 65
   257
 75
     1
175
     1
 42
40.0
 92
        8
 66
     7
 43
1.0
 76
     1
 77
     6
 78
     2
 67
     7
 79
     3
170
     0
171
     0
290
     0
174
     0
 93
        1
 44
0.0
173
     0
291
     0
 45
0.0
1001
ACAD
1000
AcDbSavedByObjectVersion
1070
     0
  0
VISUALSTYLE
  5
7F3A
102
{ACAD_REACTORS
330
7F2F
102
}
330
7F2F
100
AcDbVisualStyle
  2
Dim
 70
    11
 71
     2
 72
     2
 73
     0
 90
        0
 40
-0.6
 41
-30.0
 62
     5
 63
     7
 74
     1
 91
        4
 64
     7
 65
   257
 75
     1
175
     1
 42
1.0
 92
        8
 66
     7
 43
1.0
 76
     1
 77
     6
 78
     2
 67
     7
 79
     5
170
     0
171
     0
290
     0
174
     0
 93
        1
 44
-50.0
173
     0
291
     1
 45
0.0
1001
ACAD
1000
AcDbSavedByObjectVersion
1070
     0
  0
VISUALSTYLE
  5
7F3E
102
{ACAD_REACTORS
330
7F2F
102
}
330
7F2F
100
AcDbVisualStyle
  2
Facepattern
 70
    15
 71
     2
 72
     2
 73
     0
 90
        0
 40
-0.6
 41
-30.0
 62
     5
 63
     7
 74
     1
 91
        4
 64
     7
 65
   257
 75
     1
175
     1
 42
1.0
 92
        8
 66
     7
 43
1.0
 76
     1
 77
     6
 78
     2
 67
     7
 79
     5
170
     0
171
     0
290
     0
174
     0
 93
        1
 44
0.0
173
     0
291
     1
 45
0.0
1001
ACAD
1000
AcDbSavedByObjectVersion
1070
     0
  0
VISUALSTYLE
  5
7F30
102
{ACAD_REACTORS
330
7F2F
102
}
330
7F2F
100
AcDbVisualStyle
  2
Flat
 70
     0
 71
     2
 72
     1
 73
     1
 90
        2
 40
-0.6
 41
30.0
 62
     5
 63
     7
 74
     0
 91
        4
 64
     7
 65
   257
 75
     1
175
     1
 42
1.0
 92
        8
 66
     7
 43
1.0
 76
     1
 77
     6
 78
     2
 67
     7
 79
     5
170
     0
171
     0
290
     0
174
     0
 93
       13
 44
0.0
173
     0
291
     1
 45
0.0
1001
ACAD
1000
AcDbSavedByObjectVersion
1070
     0
  0
VISUALSTYLE
  5
7F31
102
{ACAD_REACTORS
330
7F2F
102
}
330
7F2F
100
AcDbVisualStyle
  2
FlatWithEdges
 70
     1
 71
     2
 72
     1
 73
     1
 90
        2
 40
-0.6
 41
30.0
 62
     5
 63
     7
 74
     1
 91
        4
 64
     7
 65
   257
 75
     1
175
     1
 42
1.0
 92
        0
 66
   257
 43
1.0
 76
     1
 77
     6
 78
     2
 67
     7
 79
     5
170
     0
171
     0
290
     0
174
     0
 93
       13
 44
0.0
173
     0
291
     1
 45
0.0
1001
ACAD
1000
AcDbSavedByObjectVersion
1070
     0
  0
VISUALSTYLE
  5
7F32
102
{ACAD_REACTORS
330
7F2F
102
}
330
7F2F
100
AcDbVisualStyle
  2
Gouraud
 70
     2
 71
     2
 72
     2
 73
     1
 90
        2
 40
-0.6
 41
30.0
 62
     5
 63
     7
 74
     0
 91
        4
 64
     7
 65
   257
 75
     1
175
     1
 42
1.0
 92
        0
 66
     7
 43
1.0
 76
     1
 77
     6
 78
     2
 67
     7
 79
     5
170
     0
171
     0
290
     0
174
     0
 93
       13
 44
0.0
173
     0
291
     1
 45
0.0
1001
ACAD
1000
AcDbSavedByObjectVersion
1070
     0
  0
VISUALSTYLE
  5
7F33
102
{ACAD_REACTORS
330
7F2F
102
}
330
7F2F
100
AcDbVisualStyle
  2
GouraudWithEdges
 70
     3
 71
     2
 72
     2
 73
     1
 90
        2
 40
-0.6
 41
30.0
 62
     5
 63
     7
 74
     1
 91
        4
 64
     7
 65
   257
 75
     1
175
     1
 42
1.0
 92
        0
 66
   257
 43
1.0
 76
     1
 77
     6
 78
     2
 67
     7
 79
     5
170
     0
171
     0
290
     0
174
     0
 93
       13
 44
0.0
173
     0
291
     1
 45
0.0
1001
ACAD
1000
AcDbSavedByObjectVersion
1070
     0
  0
VISUALSTYLE
  5
7F3D
102
{ACAD_REACTORS
330
7F2F
102
}
330
7F2F
100
AcDbVisualStyle
  2
Linepattern
 70
    14
 71
     2
 72
     2
 73
     0
 90
        0
 40
-0.6
 41
-30.0
 62
     5
 63
     7
 74
     1
 91
        4
 64
     7
 65
   257
 75
     7
175
     7
 42
1.0
 92
        8
 66
     7
 43
1.0
 76
     1
 77
     6
 78
     2
 67
     7
 79
     5
170
     0
171
     0
290
     0
174
     0
 93
        1
 44
0.0
173
     0
291
     1
 45
0.0
1001
ACAD
1000
AcDbSavedByObjectVersion
1070
     0
  0
VISUALSTYLE
  5
7F39
102
{ACAD_REACTORS
330
7F2F
102
}
330
7F2F
100
AcDbVisualStyle
  2
Realistic
 70
     8
 71
     2
 72
     2
 73
     0
 90
        0
 40
-0.6
 41
-30.0
 62
     5
 63
     7
 74
     1
 91
        0
 64
     7
 65
   257
 75
     1
175
     1
 42
1.0
 92
        8
 66
     8
 43
1.0
 76
     1
 77
     6
 78
     2
 67
     7
 79
     5
170
     0
171
     0
290
     0
174
     0
 93
       13
 44
0.0
173
     0
291
     0
 45
0.0
1001
ACAD
1000
AcDbSavedByObjectVersion
1070
     0
  0
VISUALSTYLE
  5
7F3C
102
{ACAD_REACTORS
330
7F2F
102
}
330
7F2F
100
AcDbVisualStyle
  2
Thicken
 70
    13
 71
     2
 72
     2
 73
     0
 90
        0
 40
-0.6
 41
-30.0
 62
     5
 63
     7
 74
     1
 91
        4
 64
     7
 65
   257
 75
     1
175
     1
 42
1.0
 92
       12
 66
     7
 43
1.0
 76
     1
 77
     6
 78
     2
 67
     7
 79
     5
170
     0
171
     0
290
     0
174
     0
 93
        1
 44
0.0
173
     0
291
     1
 45
0.0
1001
ACAD
1000
AcDbSavedByObjectVersion
1070
     0
  0
DICTIONARYVAR
  5
7F4C
102
{ACAD_REACTORS
330
7EC4
102
}
330
7EC4
100
DictionaryVariables
280
     0
  1
STANDARD
  0
DICTIONARYVAR
  5
7F54
102
{ACAD_REACTORS
330
7EC4
102
}
330
7EC4
100
DictionaryVariables
280
     0
  1
1
  0
DICTIONARYVAR
  5
7F53
102
{ACAD_REACTORS
330
7EC4
102
}
330
7EC4
100
DictionaryVariables
280
     0
  1
0
  0
DICTIONARYVAR
  5
7EC5
102
{ACAD_REACTORS
330
7EC4
102
}
330
7EC4
100
DictionaryVariables
280
     0
  1
96
  0
DICTIONARY
  5
7F5E
330
7F46
100
AcDbDictionary
280
     1
281
     1
  3
ACAD_XREC_ROUNDTRIP
360
7F5F
  0
DICTIONARY
  5
7F60
330
7F47
100
AcDbDictionary
280
     1
281
     1
  3
ACAD_XREC_ROUNDTRIP
360
7F61
  0
DICTIONARY
  5
7F58
330
7F2D
100
AcDbDictionary
280
     1
281
     1
  3
ACAD_XREC_ROUNDTRIP
360
7F59
  0
DICTIONARY
  5
7F56
330
7F2C
100
AcDbDictionary
280
     1
281
     1
  3
ACAD_XREC_ROUNDTRIP
360
7F57
  0
DICTIONARY
  5
7F5A
330
7F2E
100
AcDbDictionary
280
     1
281
     1
  3
ACAD_XREC_ROUNDTRIP
360
7F5B
  0
DICTIONARY
  5
7F5C
330
7F42
100
AcDbDictionary
280
     1
281
     1
  3
ACAD_XREC_ROUNDTRIP
360
7F5D
  0
XRECORD
  5
7F5F
102
{ACAD_REACTORS
330
7F5E
102
}
330
7F5E
100
AcDbXrecord
280
     1
102
SHADEPLOT
 70
     0
102
SHADEPLOTRESLEVEL
 70
     2
102
SHADEPLOTCUSTOMDPI
 70
   300
  0
XRECORD
  5
7F61
102
{ACAD_REACTORS
330
7F60
102
}
330
7F60
100
AcDbXrecord
280
     1
102
SHADEPLOT
 70
     0
102
SHADEPLOTRESLEVEL
 70
     2
102
SHADEPLOTCUSTOMDPI
 70
   300
  0
XRECORD
  5
7F59
102
{ACAD_REACTORS
330
7F58
102
}
330
7F58
100
AcDbXrecord
280
     1
102
MATERIAL
148
0.0
149
0.0
149
0.0
 93
        0
 94
       63
282
     0
 72
     1
 77
     1
171
     1
175
     1
179
     1
273
     0
  0
XRECORD
  5
7F57
102
{ACAD_REACTORS
330
7F56
102
}
330
7F56
100
AcDbXrecord
280
     1
102
MATERIAL
148
0.0
149
0.0
149
0.0
 93
        0
 94
       63
282
     0
 72
     1
 77
     1
171
     1
175
     1
179
     1
273
     0
  0
XRECORD
  5
7F5B
102
{ACAD_REACTORS
330
7F5A
102
}
330
7F5A
100
AcDbXrecord
280
     1
102
MATERIAL
148
0.0
149
0.0
149
0.0
 93
        0
 94
       63
282
     0
 72
     1
 77
     1
171
     1
175
     1
179
     1
273
     0
  0
XRECORD
  5
7F5D
102
{ACAD_REACTORS
330
7F5C
102
}
330
7F5C
100
AcDbXrecord
280
     1
102
ACAD_ROUNDTRIP_PRE2007_TABLESTYLE
 90
      512
 91
        0
  1

 92
      512
 93
        0
  2

 94
      512
 95
        0
  3

  0
ENDSEC
  0
EOF
