  0
SECTION
  2
HEADER
  9
$ACADVER
  1
AC1015
  9
$ACADMAINTVER
 70
    20
  9
$DWGCODEPAGE
  3
ANSI_1252
  9
$INSBASE
 10
0.0
 20
0.0
 30
0.0
  9
$EXTMIN
 10
1715.352870550677
 20
455.4674703805974
 30
0.0
  9
$EXTMAX
 10
3815.352870550677
 20
3425.467470380598
 30
0.0
  9
$LIMMIN
 10
0.0
 20
0.0
  9
$LIMMAX
 10
210.0
 20
297.0
  9
$ORTHOMODE
 70
     1
  9
$REGENMODE
 70
     1
  9
$FILLMODE
 70
     1
  9
$QTEXTMODE
 70
     0
  9
$MIRRTEXT
 70
     1
  9
$LTSCALE
 40
25.0
  9
$ATTMODE
 70
     1
  9
$TEXTSIZE
 40
2.75
  9
$TRACEWID
 40
1.0
  9
$TEXTSTYLE
  7
Estilo1
  9
$CLAYER
  8
0
  9
$CELTYPE
  6
BYLAYER
  9
$CECOLOR
 62
   256
  9
$CELTSCALE
 40
1.0
  9
$DISPSILH
 70
     0
  9
$DIMSCALE
 40
10.0
  9
$DIMASZ
 40
3.0
  9
$DIMEXO
 40
0.0
  9
$DIMDLI
 40
7.0
  9
$DIMRND
 40
0.0
  9
$DIMDLE
 40
0.0
  9
$DIMEXE
 40
2.0
  9
$DIMTP
 40
0.0
  9
$DIMTM
 40
0.0
  9
$DIMTXT
 40
2.5
  9
$DIMCEN
 40
1.5
  9
$DIMTSZ
 40
0.0
  9
$DIMTOL
 70
     0
  9
$DIMLIM
 70
     0
  9
$DIMTIH
 70
     0
  9
$DIMTOH
 70
     0
  9
$DIMSE1
 70
     0
  9
$DIMSE2
 70
     0
  9
$DIMTAD
 70
     0
  9
$DIMZIN
 70
     0
  9
$DIMBLK
  1

  9
$DIMASO
 70
     1
  9
$DIMSHO
 70
     0
  9
$DIMPOST
  1

  9
$DIMAPOST
  1

  9
$DIMALT
 70
     0
  9
$DIMALTD
 70
     2
  9
$DIMALTF
 40
25.4
  9
$DIMLFAC
 40
1.0
  9
$DIMTOFL
 70
     0
  9
$DIMTVP
 40
0.0
  9
$DIMTIX
 70
     0
  9
$DIMSOXD
 70
     0
  9
$DIMSAH
 70
     0
  9
$DIMBLK1
  1

  9
$DIMBLK2
  1

  9
$DIMSTYLE
  2
STANDARD
  9
$DIMCLRD
 70
   256
  9
$DIMCLRE
 70
   256
  9
$DIMCLRT
 70
     6
  9
$DIMTFAC
 40
1.0
  9
$DIMGAP
 40
3.0
  9
$DIMJUST
 70
     0
  9
$DIMSD1
 70
     0
  9
$DIMSD2
 70
     0
  9
$DIMTOLJ
 70
     1
  9
$DIMTZIN
 70
     8
  9
$DIMALTZ
 70
     0
  9
$DIMALTTZ
 70
     0
  9
$DIMUPT
 70
     1
  9
$DIMDEC
 70
     0
  9
$DIMTDEC
 70
     0
  9
$DIMALTU
 70
     2
  9
$DIMALTTD
 70
     2
  9
$DIMTXSTY
  7
ROMANS
  9
$DIMAUNIT
 70
     0
  9
$DIMADEC
 70
     0
  9
$DIMALTRND
 40
0.0
  9
$DIMAZIN
 70
     0
  9
$DIMDSEP
 70
    46
  9
$DIMATFIT
 70
     0
  9
$DIMFRAC
 70
     0
  9
$DIMLDRBLK
  1

  9
$DIMLUNIT
 70
     2
  9
$DIMLWD
 70
    -2
  9
$DIMLWE
 70
    -2
  9
$DIMTMOVE
 70
     0
  9
$LUNITS
 70
     2
  9
$LUPREC
 70
     2
  9
$SKETCHINC
 40
1.0
  9
$FILLETRAD
 40
10.0
  9
$AUNITS
 70
     0
  9
$AUPREC
 70
     0
  9
$MENU
  1
C:\ACADR13\WIN\SUPPORT\ACAD
  9
$ELEVATION
 40
0.0
  9
$PELEVATION
 40
0.0
  9
$THICKNESS
 40
0.0
  9
$LIMCHECK
 70
     0
  9
$CHAMFERA
 40
0.0
  9
$CHAMFERB
 40
0.0
  9
$CHAMFERC
 40
0.0
  9
$CHAMFERD
 40
0.0
  9
$SKPOLY
 70
     0
  9
$TDCREATE
 40
2450638.536017824
  9
$TDUCREATE
 40
2450638.494351158
  9
$TDUPDATE
 40
2454447.807625915
  9
$TDUUPDATE
 40
2454447.765959248
  9
$TDINDWG
 40
0.7841620718
  9
$TDUSRTIMER
 40
0.7841620718
  9
$USRTIMER
 70
     1
  9
$ANGBASE
 50
0.0
  9
$ANGDIR
 70
     0
  9
$PDMODE
 70
     0
  9
$PDSIZE
 40
0.0
  9
$PLINEWID
 40
0.0
  9
$SPLFRAME
 70
     0
  9
$SPLINETYPE
 70
     6
  9
$SPLINESEGS
 70
     8
  9
$HANDSEED
  5
8E44
  9
$SURFTAB1
 70
     6
  9
$SURFTAB2
 70
     6
  9
$SURFTYPE
 70
     6
  9
$SURFU
 70
     6
  9
$SURFV
 70
     6
  9
$UCSBASE
  2

  9
$UCSNAME
  2

  9
$UCSORG
 10
0.0
 20
0.0
 30
0.0
  9
$UCSXDIR
 10
1.0
 20
0.0
 30
0.0
  9
$UCSYDIR
 10
0.0
 20
1.0
 30
0.0
  9
$UCSORTHOREF
  2

  9
$UCSORTHOVIEW
 70
     0
  9
$UCSORGTOP
 10
0.0
 20
0.0
 30
0.0
  9
$UCSORGBOTTOM
 10
0.0
 20
0.0
 30
0.0
  9
$UCSORGLEFT
 10
0.0
 20
0.0
 30
0.0
  9
$UCSORGRIGHT
 10
0.0
 20
0.0
 30
0.0
  9
$UCSORGFRONT
 10
0.0
 20
0.0
 30
0.0
  9
$UCSORGBACK
 10
0.0
 20
0.0
 30
0.0
  9
$PUCSBASE
  2

  9
$PUCSNAME
  2

  9
$PUCSORG
 10
0.0
 20
0.0
 30
0.0
  9
$PUCSXDIR
 10
1.0
 20
0.0
 30
0.0
  9
$PUCSYDIR
 10
0.0
 20
1.0
 30
0.0
  9
$PUCSORTHOREF
  2

  9
$PUCSORTHOVIEW
 70
     0
  9
$PUCSORGTOP
 10
0.0
 20
0.0
 30
0.0
  9
$PUCSORGBOTTOM
 10
0.0
 20
0.0
 30
0.0
  9
$PUCSORGLEFT
 10
0.0
 20
0.0
 30
0.0
  9
$PUCSORGRIGHT
 10
0.0
 20
0.0
 30
0.0
  9
$PUCSORGFRONT
 10
0.0
 20
0.0
 30
0.0
  9
$PUCSORGBACK
 10
0.0
 20
0.0
 30
0.0
  9
$USERI1
 70
     0
  9
$USERI2
 70
     0
  9
$USERI3
 70
     0
  9
$USERI4
 70
     0
  9
$USERI5
 70
     0
  9
$USERR1
 40
0.0
  9
$USERR2
 40
0.0
  9
$USERR3
 40
0.0
  9
$USERR4
 40
0.0
  9
$USERR5
 40
0.0
  9
$WORLDVIEW
 70
     1
  9
$SHADEDGE
 70
     3
  9
$SHADEDIF
 70
    70
  9
$TILEMODE
 70
     1
  9
$MAXACTVP
 70
    16
  9
$PINSBASE
 10
0.0
 20
0.0
 30
0.0
  9
$PLIMCHECK
 70
     0
  9
$PEXTMIN
 10
1.000000000000000E+20
 20
1.000000000000000E+20
 30
1.000000000000000E+20
  9
$PEXTMAX
 10
-1.000000000000000E+20
 20
-1.000000000000000E+20
 30
-1.000000000000000E+20
  9
$PLIMMIN
 10
0.0
 20
0.0
  9
$PLIMMAX
 10
12.0
 20
9.0
  9
$UNITMODE
 70
     0
  9
$VISRETAIN
 70
     0
  9
$PLINEGEN
 70
     0
  9
$PSLTSCALE
 70
     0
  9
$TREEDEPTH
 70
  3020
  9
$CMLSTYLE
  2
STANDARD
  9
$CMLJUST
 70
     0
  9
$CMLSCALE
 40
1.0
  9
$PROXYGRAPHICS
 70
     1
  9
$MEASUREMENT
 70
     0
  9
$CELWEIGHT
370
    -1
  9
$ENDCAPS
280
     0
  9
$JOINSTYLE
280
     0
  9
$LWDISPLAY
290
     0
  9
$INSUNITS
 70
     0
  9
$HYPERLINKBASE
  1

  9
$STYLESHEET
  1
ploter.ctb
  9
$XEDIT
290
     1
  9
$CEPSNTYPE
380
     0
  9
$PSTYLEMODE
290
     1
  9
$FINGERPRINTGUID
  2
{F49B0CD4-B247-47BA-AA8F-9CC67839D16B}
  9
$VERSIONGUID
  2
{514B7423-49FC-43A8-95D3-95D31FCAB026}
  9
$EXTNAMES
290
     1
  9
$PSVPSCALE
 40
0.0
  9
$OLESTARTUP
290
     0
  0
ENDSEC
  0
SECTION
  2
CLASSES
  0
CLASS
  1
DICTIONARYVAR
  2
AcDbDictionaryVar
  3
ObjectDBX Classes
 90
        0
280
     0
281
     0
  0
CLASS
  1
ACDBDICTIONARYWDFLT
  2
AcDbDictionaryWithDefault
  3
ObjectDBX Classes
 90
        0
280
     0
281
     0
  0
CLASS
  1
TABLESTYLE
  2
AcDbTableStyle
  3
ObjectDBX Classes
 90
     4095
280
     0
281
     0
  0
CLASS
  1
SORTENTSTABLE
  2
AcDbSortentsTable
  3
ObjectDBX Classes
 90
        0
280
     0
281
     0
  0
CLASS
  1
ACDBPLACEHOLDER
  2
AcDbPlaceHolder
  3
ObjectDBX Classes
 90
        0
280
     0
281
     0
  0
CLASS
  1
LAYOUT
  2
AcDbLayout
  3
ObjectDBX Classes
 90
        0
280
     0
281
     0
  0
CLASS
  1
MATERIAL
  2
AcDbMaterial
  3
ObjectDBX Classes
 90
     1024
280
     0
281
     0
  0
CLASS
  1
VISUALSTYLE
  2
AcDbVisualStyle
  3
ObjectDBX Classes
 90
     4095
280
     0
281
     0
  0
ENDSEC
  0
SECTION
  2
TABLES
  0
TABLE
  2
VPORT
  5
8
330
0
100
AcDbSymbolTable
 70
     1
  0
VPORT
  5
8E13
330
8
100
AcDbSymbolTableRecord
100
AcDbViewportTableRecord
  2
*Active
 70
     0
 10
0.0
 20
0.0
 11
1.0
 21
1.0
 12
4901.089141568282
 22
2457.198078530617
 13
0.0
 23
0.0
 14
1.0
 24
1.0
 15
10.0
 25
10.0
 16
0.0
 26
0.0
 36
1.0
 17
0.0
 27
0.0
 37
0.0
 40
2878.632164400909
 41
2.248246844319775
 42
50.0
 43
0.0
 44
0.0
 50
0.0
 51
0.0
 71
     0
 72
   100
 73
     1
 74
     1
 75
     0
 76
     0
 77
     0
 78
     0
281
     0
 65
     1
110
0.0
120
0.0
130
0.0
111
1.0
121
0.0
131
0.0
112
0.0
122
1.0
132
0.0
 79
     0
146
0.0
  0
ENDTAB
  0
TABLE
  2
LTYPE
  5
5
330
0
100
AcDbSymbolTable
 70
     2
  0
LTYPE
  5
12
330
5
100
AcDbSymbolTableRecord
100
AcDbLinetypeTableRecord
  2
BYBLOCK
 70
     0
  3

 72
    65
 73
     0
 40
0.0
  0
LTYPE
  5
13
330
5
100
AcDbSymbolTableRecord
100
AcDbLinetypeTableRecord
  2
BYLAYER
 70
     0
  3

 72
    65
 73
     0
 40
0.0
  0
LTYPE
  5
14
330
5
100
AcDbSymbolTableRecord
100
AcDbLinetypeTableRecord
  2
CONTINUOUS
 70
     0
  3
Ausgezogene Linie
 72
    65
 73
     0
 40
0.0
  0
LTYPE
  5
5F03
330
5
100
AcDbSymbolTableRecord
100
AcDbLinetypeTableRecord
  2
CENTRO
 70
     0
  3
____ _ ____ _ ____ _ ____ _ ____ _ ____ _ ____ 
 72
    65
 73
     4
 40
2.0
 49
1.25
 74
     0
 49
-0.25
 74
     0
 49
0.25
 74
     0
 49
-0.25
 74
     0
  0
ENDTAB
  0
TABLE
  2
LAYER
  5
2
102
{ACAD_XDICTIONARY
360
8A6F
102
}
330
0
100
AcDbSymbolTable
 70
     6
  0
LAYER
  5
F
330
2
100
AcDbSymbolTableRecord
100
AcDbLayerTableRecord
  2
0
 70
     0
 62
     7
  6
CONTINUOUS
370
    -3
390
862F
  0
LAYER
  5
689
330
2
100
AcDbSymbolTableRecord
100
AcDbLayerTableRecord
  2
COTAS
 70
     0
 62
     3
  6
CONTINUOUS
370
    -3
390
862F
  0
LAYER
  5
8CA
330
2
100
AcDbSymbolTableRecord
100
AcDbLayerTableRecord
  2
DEFPOINTS
 70
     0
 62
     7
  6
CONTINUOUS
290
     0
370
    -3
390
862F
  0
LAYER
  5
8A6C
330
2
100
AcDbSymbolTableRecord
100
AcDbLayerTableRecord
  2
tampon_distr._doc.
 70
     0
 62
  -142
  6
CONTINUOUS
370
    -3
390
862F
  0
LAYER
  5
8C99
330
2
100
AcDbSymbolTableRecord
100
AcDbLayerTableRecord
  2
EJES
 70
     0
 62
     2
  6
CENTRO
370
    -3
390
862F
1001
AcAecLayerStandard
1000

1000

  0
LAYER
  5
8E08
330
2
100
AcDbSymbolTableRecord
100
AcDbLayerTableRecord
  2
FINAS
 70
     0
 62
     8
  6
CONTINUOUS
370
    -3
390
862F
1001
AcAecLayerStandard
1000

1000

  0
ENDTAB
  0
TABLE
  2
STYLE
  5
3
330
0
100
AcDbSymbolTable
 70
     4
  0
STYLE
  5
10
330
3
100
AcDbSymbolTableRecord
100
AcDbTextStyleTableRecord
  2
STANDARD
 70
     0
 40
0.0
 41
1.0
 50
0.0
 71
     0
 42
3.5
  3
txt.shx
  4

  0
STYLE
  5
1F
330
3
100
AcDbSymbolTableRecord
100
AcDbTextStyleTableRecord
  2
ROMANS
 70
     0
 40
0.0
 41
1.0
 50
0.0
 71
     0
 42
3.0
  3
romans
  4

  0
STYLE
  5
8A6D
330
3
100
AcDbSymbolTableRecord
100
AcDbTextStyleTableRecord
  2
MANO
 70
     0
 40
0.0
 41
1.0
 50
0.0
 71
     0
 42
5.109471091417503
  3
cityb___.ttf
  4

1001
ACAD
1000
CityBlueprint
1071
      514
  0
STYLE
  5
8D2C
330
3
100
AcDbSymbolTableRecord
100
AcDbTextStyleTableRecord
  2
Estilo1
 70
     0
 40
0.0
 41
1.0
 50
0.0
 71
     0
 42
2.75
  3
ARIAL.TTF
  4

1001
ACAD
1000
Arial
1071
       34
  0
ENDTAB
  0
TABLE
  2
VIEW
  5
6
330
0
100
AcDbSymbolTable
 70
     0
  0
ENDTAB
  0
TABLE
  2
UCS
  5
7
330
0
100
AcDbSymbolTable
 70
     0
  0
ENDTAB
  0
TABLE
  2
APPID
  5
9
330
0
100
AcDbSymbolTable
 70
     4
  0
APPID
  5
11
330
9
100
AcDbSymbolTableRecord
100
AcDbRegAppTableRecord
  2
ACAD
 70
     0
  0
APPID
  5
8997
330
9
100
AcDbSymbolTableRecord
100
AcDbRegAppTableRecord
  2
ACAD_PSEXT
 70
     0
  0
APPID
  5
8C9A
330
9
100
AcDbSymbolTableRecord
100
AcDbRegAppTableRecord
  2
AcAecLayerStandard
 70
     0
  0
APPID
  5
8CF4
330
9
100
AcDbSymbolTableRecord
100
AcDbRegAppTableRecord
  2
ACAD_DSTYLE_DIMTEXT_FILL
 70
     0
  0
ENDTAB
  0
TABLE
  2
DIMSTYLE
  5
A
330
0
100
AcDbSymbolTable
 70
     1
100
AcDbDimStyleTable
 71
     1
340
357
  0
DIMSTYLE
105
357
102
{ACAD_REACTORS
330
82E1
330
85DB
330
82EF
330
83F4
330
8316
330
8402
330
8295
330
8287
102
}
330
A
100
AcDbSymbolTableRecord
100
AcDbDimStyleTableRecord
  2
STANDARD
 70
     0
340
10
  0
ENDTAB
  0
TABLE
  2
BLOCK_RECORD
  5
1
330
0
100
AcDbSymbolTable
 70
     8
  0
BLOCK_RECORD
  5
18
102
{ACAD_XDICTIONARY
360
8654
102
}
330
1
100
AcDbSymbolTableRecord
100
AcDbBlockTableRecord
  2
*MODEL_SPACE
340
8636
  0
BLOCK_RECORD
  5
15
330
1
100
AcDbSymbolTableRecord
100
AcDbBlockTableRecord
  2
*PAPER_SPACE
340
8637
  0
BLOCK_RECORD
  5
827A
330
1
100
AcDbSymbolTableRecord
100
AcDbBlockTableRecord
  2
*D0
340
0
  0
BLOCK_RECORD
  5
8288
330
1
100
AcDbSymbolTableRecord
100
AcDbBlockTableRecord
  2
*D1
340
0
  0
BLOCK_RECORD
  5
82D4
330
1
100
AcDbSymbolTableRecord
100
AcDbBlockTableRecord
  2
*D2
340
0
  0
BLOCK_RECORD
  5
82E2
330
1
100
AcDbSymbolTableRecord
100
AcDbBlockTableRecord
  2
*D3
340
0
  0
BLOCK_RECORD
  5
8309
330
1
100
AcDbSymbolTableRecord
100
AcDbBlockTableRecord
  2
*D4
340
0
  0
BLOCK_RECORD
  5
83E7
330
1
100
AcDbSymbolTableRecord
100
AcDbBlockTableRecord
  2
*D5
340
0
  0
BLOCK_RECORD
  5
83F5
330
1
100
AcDbSymbolTableRecord
100
AcDbBlockTableRecord
  2
*D6
340
0
  0
BLOCK_RECORD
  5
85CE
330
1
100
AcDbSymbolTableRecord
100
AcDbBlockTableRecord
  2
*D7
340
0
  0
ENDTAB
  0
ENDSEC
  0
SECTION
  2
BLOCKS
  0
BLOCK
  5
2A
330
18
100
AcDbEntity
  8
0
100
AcDbBlockBegin
  2
*MODEL_SPACE
 70
     0
 10
0.0
 20
0.0
 30
0.0
  3
*MODEL_SPACE
  1

  0
ENDBLK
  5
2B
330
18
100
AcDbEntity
  8
0
100
AcDbBlockEnd
  0
BLOCK
  5
28
330
15
100
AcDbEntity
 67
     1
  8
0
100
AcDbBlockBegin
  2
*PAPER_SPACE
 70
     0
 10
0.0
 20
0.0
 30
0.0
  3
*PAPER_SPACE
  1

  0
ENDBLK
  5
29
330
15
100
AcDbEntity
 67
     1
  8
0
100
AcDbBlockEnd
  0
BLOCK
  5
82A2
330
827A
100
AcDbEntity
  8
0
100
AcDbBlockBegin
  2
*D0
 70
     1
 10
0.0
 20
0.0
 30
0.0
  3
*D0
  1

  0
LINE
  5
8DA5
330
827A
100
AcDbEntity
  8
COTAS
370
    -2
100
AcDbLine
 10
2489.15472686551
 20
2901.87445181277
 30
0.0
 11
2585.418299221055
 21
2901.87445181277
 31
0.0
  0
LINE
  5
8DA6
330
827A
100
AcDbEntity
  8
COTAS
370
    -2
100
AcDbLine
 10
2488.561309674387
 20
2851.874451813043
 30
0.0
 11
2585.418299221055
 21
2851.874451813043
 31
0.0
  0
LINE
  5
8DA7
330
827A
100
AcDbEntity
  8
COTAS
370
    -2
100
AcDbLine
 10
2565.418299221054
 20
2931.87445181277
 30
0.0
 11
2565.418299221054
 21
2961.87445181277
 31
0.0
  0
LINE
  5
8DA8
330
827A
100
AcDbEntity
  8
COTAS
370
    -2
100
AcDbLine
 10
2565.418299221054
 20
2821.874451813043
 30
0.0
 11
2565.418299221054
 21
2789.188328250384
 31
0.0
  0
SOLID
  5
8DA9
330
827A
100
AcDbEntity
  8
COTAS
100
AcDbTrace
 10
2560.418299221055
 20
2931.87445181277
 30
0.0
 11
2570.418299221055
 21
2931.87445181277
 31
0.0
 12
2565.418299221054
 22
2901.87445181277
 32
0.0
 13
2565.418299221054
 23
2901.87445181277
 33
0.0
  0
SOLID
  5
8DAA
330
827A
100
AcDbEntity
  8
COTAS
100
AcDbTrace
 10
2560.418299221055
 20
2821.874451813043
 30
0.0
 11
2570.418299221055
 21
2821.874451813043
 31
0.0
 12
2565.418299221054
 22
2851.874451813043
 32
0.0
 13
2565.418299221054
 23
2851.874451813043
 33
0.0
  0
MTEXT
  5
8DAB
330
827A
100
AcDbEntity
  8
COTAS
 62
     6
100
AcDbMText
 10
2565.418299221054
 20
2737.58873752733
 30
0.0
 40
30.0
 41
0.0
 71
     5
 72
     1
  1
\A1;55
  7
Estilo1
 11
0.0000000000000001
 21
1.0
 31
0.0
 73
     1
 44
1.0
1001
ACAD
1000
MTEXTBEGIN
1070
    73
1070
     1
1070
    44
1040
1.0
1070
    74
1070
     0
1000
MTEXTEND
  0
POINT
  5
8DAC
330
827A
100
AcDbEntity
  8
DEFPOINTS
 62
     0
100
AcDbPoint
 10
2489.15472686551
 20
2901.87445181277
 30
0.0
  0
POINT
  5
8DAD
330
827A
100
AcDbEntity
  8
DEFPOINTS
 62
     0
100
AcDbPoint
 10
2488.561309674387
 20
2851.874451813043
 30
0.0
  0
POINT
  5
8DAE
330
827A
100
AcDbEntity
  8
DEFPOINTS
 62
     0
100
AcDbPoint
 10
2565.418299221054
 20
2851.874451813043
 30
0.0
  0
ENDBLK
  5
82AD
330
827A
100
AcDbEntity
  8
0
100
AcDbBlockEnd
  0
BLOCK
  5
8331
330
8288
100
AcDbEntity
  8
0
100
AcDbBlockBegin
  2
*D1
 70
     1
 10
0.0
 20
0.0
 30
0.0
  3
*D1
  1

  0
LINE
  5
8D9B
330
8288
100
AcDbEntity
  8
COTAS
370
    -2
100
AcDbLine
 10
2537.286513043282
 20
2901.87445181277
 30
0.0
 11
2646.651768678975
 21
2901.87445181277
 31
0.0
  0
LINE
  5
8D9C
330
8288
100
AcDbEntity
  8
COTAS
370
    -2
100
AcDbLine
 10
2456.999353057752
 20
2541.874451812771
 30
0.0
 11
2646.651768678975
 21
2541.874451812771
 31
0.0
  0
LINE
  5
8D9D
330
8288
100
AcDbEntity
  8
COTAS
370
    -2
100
AcDbLine
 10
2626.651768678974
 20
2871.87445181277
 30
0.0
 11
2626.651768678974
 21
2786.339020666251
 31
0.0
  0
LINE
  5
8D9E
330
8288
100
AcDbEntity
  8
COTAS
370
    -2
100
AcDbLine
 10
2626.651768678974
 20
2571.874451812771
 30
0.0
 11
2626.651768678974
 21
2660.179402658066
 31
0.0
  0
SOLID
  5
8D9F
330
8288
100
AcDbEntity
  8
COTAS
100
AcDbTrace
 10
2621.651768678975
 20
2871.87445181277
 30
0.0
 11
2631.651768678974
 21
2871.87445181277
 31
0.0
 12
2626.651768678974
 22
2901.87445181277
 32
0.0
 13
2626.651768678974
 23
2901.87445181277
 33
0.0
  0
SOLID
  5
8DA0
330
8288
100
AcDbEntity
  8
COTAS
100
AcDbTrace
 10
2621.651768678975
 20
2571.874451812771
 30
0.0
 11
2631.651768678974
 21
2571.874451812771
 31
0.0
 12
2626.651768678974
 22
2541.874451812771
 32
0.0
 13
2626.651768678974
 23
2541.874451812771
 33
0.0
  0
MTEXT
  5
8DA1
330
8288
100
AcDbEntity
  8
COTAS
 62
     6
100
AcDbMText
 10
2626.651768678974
 20
2723.259211662159
 30
0.0
 40
30.0
 41
0.0
 71
     5
 72
     1
  1
\A1;360
  7
Estilo1
 11
0.0000000000000001
 21
1.0
 31
0.0
 73
     1
 44
1.0
1001
ACAD
1000
MTEXTBEGIN
1070
    73
1070
     1
1070
    44
1040
1.0
1070
    74
1070
     0
1000
MTEXTEND
  0
POINT
  5
8DA2
330
8288
100
AcDbEntity
  8
DEFPOINTS
 62
     0
100
AcDbPoint
 10
2537.286513043282
 20
2901.87445181277
 30
0.0
  0
POINT
  5
8DA3
330
8288
100
AcDbEntity
  8
DEFPOINTS
 62
     0
100
AcDbPoint
 10
2456.999353057752
 20
2541.874451812771
 30
0.0
  0
POINT
  5
8DA4
330
8288
100
AcDbEntity
  8
DEFPOINTS
 62
     0
100
AcDbPoint
 10
2626.651768678974
 20
2541.874451812771
 30
0.0
  0
ENDBLK
  5
833C
330
8288
100
AcDbEntity
  8
0
100
AcDbBlockEnd
  0
BLOCK
  5
8613
330
82D4
100
AcDbEntity
  8
0
100
AcDbBlockBegin
  2
*D2
 70
     1
 10
0.0
 20
0.0
 30
0.0
  3
*D2
  1

  0
LINE
  5
8D5F
330
82D4
100
AcDbEntity
  8
COTAS
370
    -2
100
AcDbLine
 10
2922.163104327565
 20
2070.40348089724
 30
0.0
 11
2801.855852727983
 21
2070.40348089724
 31
0.0
  0
LINE
  5
8D60
330
82D4
100
AcDbEntity
  8
COTAS
370
    -2
100
AcDbLine
 10
2922.163104327565
 20
1680.403480896913
 30
0.0
 11
2801.855852727983
 21
1680.403480896913
 31
0.0
  0
LINE
  5
8D61
330
82D4
100
AcDbEntity
  8
COTAS
370
    -2
100
AcDbLine
 10
2821.855852727983
 20
2040.403480897241
 30
0.0
 11
2821.855852727983
 21
1935.299487355468
 31
0.0
  0
LINE
  5
8D62
330
82D4
100
AcDbEntity
  8
COTAS
370
    -2
100
AcDbLine
 10
2821.855852727983
 20
1710.403480896913
 30
0.0
 11
2821.855852727983
 21
1809.139869347282
 31
0.0
  0
SOLID
  5
8D63
330
82D4
100
AcDbEntity
  8
COTAS
100
AcDbTrace
 10
2816.855852727984
 20
2040.403480897241
 30
0.0
 11
2826.855852727983
 21
2040.403480897241
 31
0.0
 12
2821.855852727983
 22
2070.40348089724
 32
0.0
 13
2821.855852727983
 23
2070.40348089724
 33
0.0
  0
SOLID
  5
8D64
330
82D4
100
AcDbEntity
  8
COTAS
100
AcDbTrace
 10
2816.855852727984
 20
1710.403480896913
 30
0.0
 11
2826.855852727983
 21
1710.403480896913
 31
0.0
 12
2821.855852727983
 22
1680.403480896913
 32
0.0
 13
2821.855852727983
 23
1680.403480896913
 33
0.0
  0
MTEXT
  5
8D65
330
82D4
100
AcDbEntity
  8
COTAS
 62
     6
100
AcDbMText
 10
2821.855852727983
 20
1872.219678351375
 30
0.0
 40
30.0
 41
0.0
 71
     5
 72
     1
  1
\A1;390
  7
Estilo1
 11
0.0000000000000001
 21
1.0
 31
0.0
 73
     1
 44
1.0
1001
ACAD
1000
MTEXTBEGIN
1070
    73
1070
     1
1070
    44
1040
1.0
1070
    74
1070
     0
1000
MTEXTEND
  0
POINT
  5
8D66
330
82D4
100
AcDbEntity
  8
DEFPOINTS
 62
     0
100
AcDbPoint
 10
2922.163104327565
 20
2070.40348089724
 30
0.0
  0
POINT
  5
8D67
330
82D4
100
AcDbEntity
  8
DEFPOINTS
 62
     0
100
AcDbPoint
 10
2922.163104327565
 20
1680.403480896913
 30
0.0
  0
POINT
  5
8D68
330
82D4
100
AcDbEntity
  8
DEFPOINTS
 62
     0
100
AcDbPoint
 10
2821.855852727983
 20
1680.403480896913
 30
0.0
  0
ENDBLK
  5
861E
330
82D4
100
AcDbEntity
  8
0
100
AcDbBlockEnd
  0
BLOCK
  5
8607
330
82E2
100
AcDbEntity
  8
0
100
AcDbBlockBegin
  2
*D3
 70
     1
 10
0.0
 20
0.0
 30
0.0
  3
*D3
  1

  0
LINE
  5
8D73
330
82E2
100
AcDbEntity
  8
COTAS
370
    -2
100
AcDbLine
 10
3517.525552924178
 20
2060.403480897241
 30
0.0
 11
3517.525552924178
 21
2191.39265231499
 31
0.0
  0
LINE
  5
8D74
330
82E2
100
AcDbEntity
  8
COTAS
370
    -2
100
AcDbLine
 10
2912.163104327801
 20
2060.403480897022
 30
0.0
 11
2912.163104327801
 21
2191.39265231499
 31
0.0
  0
LINE
  5
8D75
330
82E2
100
AcDbEntity
  8
COTAS
370
    -2
100
AcDbLine
 10
3487.525552924177
 20
2171.39265231499
 30
0.0
 11
3261.800907582314
 21
2171.39265231499
 31
0.0
  0
LINE
  5
8D76
330
82E2
100
AcDbEntity
  8
COTAS
370
    -2
100
AcDbLine
 10
2942.163104327801
 20
2171.39265231499
 30
0.0
 11
3135.457114949299
 21
2171.39265231499
 31
0.0
  0
SOLID
  5
8D77
330
82E2
100
AcDbEntity
  8
COTAS
100
AcDbTrace
 10
3487.525552924177
 20
2176.39265231499
 30
0.0
 11
3487.525552924177
 21
2166.39265231499
 31
0.0
 12
3517.525552924178
 22
2171.39265231499
 32
0.0
 13
3517.525552924178
 23
2171.39265231499
 33
0.0
  0
SOLID
  5
8D78
330
82E2
100
AcDbEntity
  8
COTAS
100
AcDbTrace
 10
2942.163104327801
 20
2176.39265231499
 30
0.0
 11
2942.163104327801
 21
2166.39265231499
 31
0.0
 12
2912.163104327801
 22
2171.39265231499
 32
0.0
 13
2912.163104327801
 23
2171.39265231499
 33
0.0
  0
MTEXT
  5
8D79
330
82E2
100
AcDbEntity
  8
COTAS
 62
     6
100
AcDbMText
 10
3198.629011265806
 20
2171.39265231499
 30
0.0
 40
30.0
 41
0.0
 71
     5
 72
     1
  1
\A1;600
  7
Estilo1
 73
     1
 44
1.0
1001
ACAD
1000
MTEXTBEGIN
1070
    73
1070
     1
1070
    44
1040
1.0
1070
    74
1070
     0
1000
MTEXTEND
  0
POINT
  5
8D7A
330
82E2
100
AcDbEntity
  8
DEFPOINTS
 62
     0
100
AcDbPoint
 10
3517.525552924178
 20
2060.403480897241
 30
0.0
  0
POINT
  5
8D7B
330
82E2
100
AcDbEntity
  8
DEFPOINTS
 62
     0
100
AcDbPoint
 10
2912.163104327801
 20
2060.403480897022
 30
0.0
  0
POINT
  5
8D7C
330
82E2
100
AcDbEntity
  8
DEFPOINTS
 62
     0
100
AcDbPoint
 10
2912.163104327801
 20
2171.39265231499
 30
0.0
  0
ENDBLK
  5
8612
330
82E2
100
AcDbEntity
  8
0
100
AcDbBlockEnd
  0
BLOCK
  5
85A9
330
8309
100
AcDbEntity
  8
0
100
AcDbBlockBegin
  2
*D4
 70
     1
 10
0.0
 20
0.0
 30
0.0
  3
*D4
  1

  0
LINE
  5
8D87
330
8309
100
AcDbEntity
  8
COTAS
370
    -2
100
AcDbLine
 10
3067.163104327801
 20
2550.874451812787
 30
0.0
 11
3067.163104327801
 21
2456.148337179624
 31
0.0
  0
LINE
  5
8D88
330
8309
100
AcDbEntity
  8
COTAS
370
    -2
100
AcDbLine
 10
3017.163104327801
 20
2550.874451812792
 30
0.0
 11
3017.163104327801
 21
2456.148337179624
 31
0.0
  0
LINE
  5
8D89
330
8309
100
AcDbEntity
  8
COTAS
370
    -2
100
AcDbLine
 10
2987.163104327802
 20
2476.148337179624
 30
0.0
 11
2957.163104327802
 21
2476.148337179624
 31
0.0
  0
LINE
  5
8D8A
330
8309
100
AcDbEntity
  8
COTAS
370
    -2
100
AcDbLine
 10
3097.163104327802
 20
2476.148337179624
 30
0.0
 11
3127.264449094903
 21
2476.148337179624
 31
0.0
  0
SOLID
  5
8D8B
330
8309
100
AcDbEntity
  8
COTAS
100
AcDbTrace
 10
2987.163104327802
 20
2481.148337179624
 30
0.0
 11
2987.163104327802
 21
2471.148337179624
 31
0.0
 12
3017.163104327801
 22
2476.148337179624
 32
0.0
 13
3017.163104327801
 23
2476.148337179624
 33
0.0
  0
SOLID
  5
8D8C
330
8309
100
AcDbEntity
  8
COTAS
100
AcDbTrace
 10
3097.163104327802
 20
2481.148337179624
 30
0.0
 11
3097.163104327802
 21
2471.148337179624
 31
0.0
 12
3067.163104327801
 22
2476.148337179624
 32
0.0
 13
3067.163104327801
 23
2476.148337179624
 33
0.0
  0
MTEXT
  5
8D8D
330
8309
100
AcDbEntity
  8
COTAS
 62
     6
100
AcDbMText
 10
3195.020247184944
 20
2476.148337179624
 30
0.0
 40
30.0
 41
0.0
 71
     5
 72
     1
  1
\A1;%%c50
  7
Estilo1
 73
     1
 44
1.0
1001
ACAD
1000
MTEXTBEGIN
1070
    73
1070
     1
1070
    44
1040
1.0
1070
    74
1070
     0
1000
MTEXTEND
  0
POINT
  5
8D8E
330
8309
100
AcDbEntity
  8
DEFPOINTS
 62
     0
100
AcDbPoint
 10
3067.163104327801
 20
2550.874451812787
 30
0.0
  0
POINT
  5
8D8F
330
8309
100
AcDbEntity
  8
DEFPOINTS
 62
     0
100
AcDbPoint
 10
3017.163104327801
 20
2550.874451812792
 30
0.0
  0
POINT
  5
8D90
330
8309
100
AcDbEntity
  8
DEFPOINTS
 62
     0
100
AcDbPoint
 10
3017.163104327801
 20
2476.148337179624
 30
0.0
  0
ENDBLK
  5
85B5
330
8309
100
AcDbEntity
  8
0
100
AcDbBlockEnd
  0
BLOCK
  5
8591
330
83E7
100
AcDbEntity
  8
0
100
AcDbBlockBegin
  2
*D5
 70
     1
 10
0.0
 20
0.0
 30
0.0
  3
*D5
  1

  0
LINE
  5
8D7D
330
83E7
100
AcDbEntity
  8
COTAS
370
    -2
100
AcDbLine
 10
3259.197172171239
 20
2541.874451812797
 30
0.0
 11
3259.197172171239
 21
2392.436817580459
 31
0.0
  0
LINE
  5
8D7E
330
83E7
100
AcDbEntity
  8
COTAS
370
    -2
100
AcDbLine
 10
2918.306068557249
 20
2541.874451812802
 30
0.0
 11
2918.306068557249
 21
2392.436817580459
 31
0.0
  0
LINE
  5
8D7F
330
83E7
100
AcDbEntity
  8
COTAS
370
    -2
100
AcDbLine
 10
3229.197172171239
 20
2412.436817580459
 30
0.0
 11
3151.831429368336
 21
2412.436817580459
 31
0.0
  0
LINE
  5
8D80
330
83E7
100
AcDbEntity
  8
COTAS
370
    -2
100
AcDbLine
 10
2948.306068557249
 20
2412.436817580459
 30
0.0
 11
3025.671811360151
 21
2412.436817580459
 31
0.0
  0
SOLID
  5
8D81
330
83E7
100
AcDbEntity
  8
COTAS
100
AcDbTrace
 10
3229.197172171239
 20
2417.436817580459
 30
0.0
 11
3229.197172171239
 21
2407.436817580459
 31
0.0
 12
3259.197172171239
 22
2412.436817580459
 32
0.0
 13
3259.197172171239
 23
2412.436817580459
 33
0.0
  0
SOLID
  5
8D82
330
83E7
100
AcDbEntity
  8
COTAS
100
AcDbTrace
 10
2948.306068557249
 20
2417.436817580459
 30
0.0
 11
2948.306068557249
 21
2407.436817580459
 31
0.0
 12
2918.306068557249
 22
2412.436817580459
 32
0.0
 13
2918.306068557249
 23
2412.436817580459
 33
0.0
  0
MTEXT
  5
8D83
330
83E7
100
AcDbEntity
  8
COTAS
 62
     6
100
AcDbMText
 10
3088.751620364244
 20
2412.436817580459
 30
0.0
 40
30.0
 41
0.0
 71
     5
 72
     1
  1
\A1;340
  7
Estilo1
 73
     1
 44
1.0
1001
ACAD
1000
MTEXTBEGIN
1070
    73
1070
     1
1070
    44
1040
1.0
1070
    74
1070
     0
1000
MTEXTEND
  0
POINT
  5
8D84
330
83E7
100
AcDbEntity
  8
DEFPOINTS
 62
     0
100
AcDbPoint
 10
3259.197172171239
 20
2541.874451812797
 30
0.0
  0
POINT
  5
8D85
330
83E7
100
AcDbEntity
  8
DEFPOINTS
 62
     0
100
AcDbPoint
 10
2918.306068557249
 20
2541.874451812802
 30
0.0
  0
POINT
  5
8D86
330
83E7
100
AcDbEntity
  8
DEFPOINTS
 62
     0
100
AcDbPoint
 10
2918.306068557249
 20
2412.436817580459
 30
0.0
  0
ENDBLK
  5
859C
330
83E7
100
AcDbEntity
  8
0
100
AcDbBlockEnd
  0
BLOCK
  5
840F
330
83F5
100
AcDbEntity
  8
0
100
AcDbBlockBegin
  2
*D6
 70
     1
 10
0.0
 20
0.0
 30
0.0
  3
*D6
  1

  0
LINE
  5
8D91
330
83F5
100
AcDbEntity
  8
COTAS
370
    -2
100
AcDbLine
 10
2143.796243979382
 20
2541.874451812776
 30
0.0
 11
2143.796243979382
 21
2392.43681758046
 31
0.0
  0
LINE
  5
8D92
330
83F5
100
AcDbEntity
  8
COTAS
370
    -2
100
AcDbLine
 10
2460.513209751312
 20
2541.874451812776
 30
0.0
 11
2460.513209751312
 21
2392.43681758046
 31
0.0
  0
LINE
  5
8D93
330
83F5
100
AcDbEntity
  8
COTAS
370
    -2
100
AcDbLine
 10
2173.796243979382
 20
2412.43681758046
 30
0.0
 11
2237.168603208379
 21
2412.43681758046
 31
0.0
  0
LINE
  5
8D94
330
83F5
100
AcDbEntity
  8
COTAS
370
    -2
100
AcDbLine
 10
2430.513209751312
 20
2412.43681758046
 30
0.0
 11
2363.328221216564
 21
2412.43681758046
 31
0.0
  0
SOLID
  5
8D95
330
83F5
100
AcDbEntity
  8
COTAS
100
AcDbTrace
 10
2173.796243979382
 20
2417.43681758046
 30
0.0
 11
2173.796243979382
 21
2407.436817580459
 31
0.0
 12
2143.796243979382
 22
2412.43681758046
 32
0.0
 13
2143.796243979382
 23
2412.43681758046
 33
0.0
  0
SOLID
  5
8D96
330
83F5
100
AcDbEntity
  8
COTAS
100
AcDbTrace
 10
2430.513209751312
 20
2417.43681758046
 30
0.0
 11
2430.513209751312
 21
2407.436817580459
 31
0.0
 12
2460.513209751312
 22
2412.43681758046
 32
0.0
 13
2460.513209751312
 23
2412.43681758046
 33
0.0
  0
MTEXT
  5
8D97
330
83F5
100
AcDbEntity
  8
COTAS
 62
     6
100
AcDbMText
 10
2300.248412212472
 20
2412.43681758046
 30
0.0
 40
30.0
 41
0.0
 71
     5
 72
     1
  1
\A1;320
  7
Estilo1
 73
     1
 44
1.0
1001
ACAD
1000
MTEXTBEGIN
1070
    73
1070
     1
1070
    44
1040
1.0
1070
    74
1070
     0
1000
MTEXTEND
  0
POINT
  5
8D98
330
83F5
100
AcDbEntity
  8
DEFPOINTS
 62
     0
100
AcDbPoint
 10
2143.796243979382
 20
2541.874451812776
 30
0.0
  0
POINT
  5
8D99
330
83F5
100
AcDbEntity
  8
DEFPOINTS
 62
     0
100
AcDbPoint
 10
2460.513209751312
 20
2541.874451812776
 30
0.0
  0
POINT
  5
8D9A
330
83F5
100
AcDbEntity
  8
DEFPOINTS
 62
     0
100
AcDbPoint
 10
2460.513209751312
 20
2412.43681758046
 30
0.0
  0
ENDBLK
  5
841A
330
83F5
100
AcDbEntity
  8
0
100
AcDbBlockEnd
  0
BLOCK
  5
85FB
330
85CE
100
AcDbEntity
  8
0
100
AcDbBlockBegin
  2
*D7
 70
     1
 10
0.0
 20
0.0
 30
0.0
  3
*D7
  1

  0
LINE
  5
8D69
330
85CE
100
AcDbEntity
  8
COTAS
370
    -2
100
AcDbLine
 10
2912.163104327801
 20
2060.403480897022
 30
0.0
 11
2912.163104327801
 21
2135.567036158608
 31
0.0
  0
LINE
  5
8D6A
330
85CE
100
AcDbEntity
  8
COTAS
370
    -2
100
AcDbLine
 10
3042.163104327801
 20
1942.903480897077
 30
0.0
 11
3042.163104327801
 21
2135.567036158608
 31
0.0
  0
LINE
  5
8D6B
330
85CE
100
AcDbEntity
  8
COTAS
370
    -2
100
AcDbLine
 10
2882.163104327802
 20
2115.567036158608
 30
0.0
 11
2852.163104327802
 21
2115.567036158608
 31
0.0
  0
LINE
  5
8D6C
330
85CE
100
AcDbEntity
  8
COTAS
370
    -2
100
AcDbLine
 10
3072.163104327801
 20
2115.567036158608
 30
0.0
 11
3102.163104327801
 21
2115.567036158608
 31
0.0
  0
SOLID
  5
8D6D
330
85CE
100
AcDbEntity
  8
COTAS
100
AcDbTrace
 10
2882.163104327802
 20
2120.567036158607
 30
0.0
 11
2882.163104327802
 21
2110.567036158608
 31
0.0
 12
2912.163104327801
 22
2115.567036158608
 32
0.0
 13
2912.163104327801
 23
2115.567036158608
 33
0.0
  0
SOLID
  5
8D6E
330
85CE
100
AcDbEntity
  8
COTAS
100
AcDbTrace
 10
3072.163104327801
 20
2120.567036158607
 30
0.0
 11
3072.163104327801
 21
2110.567036158608
 31
0.0
 12
3042.163104327801
 22
2115.567036158608
 32
0.0
 13
3042.163104327801
 23
2115.567036158608
 33
0.0
  0
MTEXT
  5
8D6F
330
85CE
100
AcDbEntity
  8
COTAS
 62
     6
100
AcDbMText
 10
2973.658896704756
 20
2115.567036158608
 30
0.0
 40
30.0
 41
0.0
 71
     5
 72
     1
  1
\A1;130
  7
Estilo1
 73
     1
 44
1.0
1001
ACAD
1000
MTEXTBEGIN
1070
    73
1070
     1
1070
    44
1040
1.0
1070
    74
1070
     0
1000
MTEXTEND
  0
POINT
  5
8D70
330
85CE
100
AcDbEntity
  8
DEFPOINTS
 62
     0
100
AcDbPoint
 10
2912.163104327801
 20
2060.403480897022
 30
0.0
  0
POINT
  5
8D71
330
85CE
100
AcDbEntity
  8
DEFPOINTS
 62
     0
100
AcDbPoint
 10
3042.163104327801
 20
1942.903480897077
 30
0.0
  0
POINT
  5
8D72
330
85CE
100
AcDbEntity
  8
DEFPOINTS
 62
     0
100
AcDbPoint
 10
3042.163104327801
 20
2115.567036158608
 30
0.0
  0
ENDBLK
  5
8606
330
85CE
100
AcDbEntity
  8
0
100
AcDbBlockEnd
  0
ENDSEC
  0
SECTION
  2
ENTITIES
  0
LINE
  5
7FE9
330
18
100
AcDbEntity
  8
0
100
AcDbLine
 10
2912.163104327801
 20
2060.403480897022
 30
0.0
 11
2912.163104327801
 21
1690.403480897131
 31
0.0
  0
LINE
  5
7FEA
330
18
100
AcDbEntity
  8
0
100
AcDbLine
 10
3507.525552924177
 20
2070.403480897241
 30
0.0
 11
2922.163104327565
 21
2070.40348089724
 31
0.0
  0
LINE
  5
7FEB
330
18
100
AcDbEntity
  8
0
100
AcDbLine
 10
3517.525552924178
 20
2060.403480897241
 30
0.0
 11
3517.525552924177
 21
1690.403480896913
 31
0.0
  0
ARC
  5
7FED
330
18
100
AcDbEntity
  8
0
100
AcDbCircle
 10
2922.163104327565
 20
2060.403480897022
 30
0.0
 40
10.0
100
AcDbArc
 50
90.00000000000003
 51
180.0
  0
LINE
  5
8024
330
18
100
AcDbEntity
  8
0
100
AcDbLine
 10
3507.525552924177
 20
1680.403480896913
 30
0.0
 11
2922.163104327565
 21
1680.403480896913
 31
0.0
  0
ARC
  5
8026
330
18
100
AcDbEntity
  8
0
100
AcDbCircle
 10
2922.163104327565
 20
1690.403480897131
 30
0.0
 40
10.0
100
AcDbArc
 50
180.0000000000001
 51
270.0
  0
CIRCLE
  5
8049
330
18
100
AcDbEntity
  8
0
100
AcDbCircle
 10
3042.163104327801
 20
1875.403480897077
 30
0.0
 40
25.0
  0
CIRCLE
  5
804A
330
18
100
AcDbEntity
  8
FINAS
100
AcDbCircle
 10
3042.163104327801
 20
1875.403480897077
 30
0.0
 40
36.0
  0
LINE
  5
811E
330
18
100
AcDbEntity
  8
FINAS
100
AcDbLine
 10
3490.654382263849
 20
2901.87445181277
 30
0.0
 11
2944.160667079112
 21
2901.87445181277
 31
0.0
  0
LINE
  5
8125
330
18
100
AcDbEntity
  8
FINAS
100
AcDbLine
 10
3234.983587659336
 20
2541.874451812797
 30
0.0
 11
2975.990989106068
 21
2541.874451812797
 31
0.0
  0
LINE
  5
8139
330
18
100
AcDbEntity
  8
FINAS
100
AcDbLine
 10
3017.163104327801
 20
2541.874451812791
 30
0.0
 11
3067.163104327801
 21
2541.874451812786
 31
0.0
  0
LINE
  5
813A
330
18
100
AcDbEntity
  8
FINAS
100
AcDbLine
 10
3067.163104327801
 20
2554.874451812784
 30
0.0
 11
3017.163104327801
 21
2554.874451812788
 31
0.0
  0
LINE
  5
813B
330
18
100
AcDbEntity
  8
FINAS
100
AcDbLine
 10
3003.963595746093
 20
2566.874451812789
 30
0.0
 11
3080.36261290951
 21
2566.874451812789
 31
0.0
  0
LINE
  5
813C
330
18
100
AcDbEntity
  8
EJES
 48
1.5
100
AcDbLine
 10
3042.163104327801
 20
2494.350153501068
 30
0.0
 11
3042.163104327801
 21
2635.398750124466
 31
0.0
  0
LINE
  5
8192
330
18
100
AcDbEntity
  8
EJES
 48
1.5
100
AcDbLine
 10
2974.663104327801
 20
1875.403480897077
 30
0.0
 11
3109.663104327801
 21
1875.403480897077
 31
0.0
  0
LINE
  5
8193
330
18
100
AcDbEntity
  8
EJES
 48
1.5
100
AcDbLine
 10
3042.163104327801
 20
1942.903480897077
 30
0.0
 11
3042.163104327801
 21
1807.903480897077
 31
0.0
  0
LINE
  5
8199
330
18
100
AcDbEntity
  8
EJES
 48
1.5
100
AcDbLine
 10
2302.154726865347
 20
2494.350153501069
 30
0.0
 11
2302.154726865347
 21
2635.398750124468
 31
0.0
  0
LINE
  5
819E
330
18
100
AcDbEntity
  8
FINAS
100
AcDbLine
 10
2302.154726865347
 20
2566.874451812787
 30
0.0
 11
2340.354235447055
 21
2566.874451812787
 31
0.0
  0
LINE
  5
819F
330
18
100
AcDbEntity
  8
FINAS
100
AcDbLine
 10
2327.154726865347
 20
2554.874451812782
 30
0.0
 11
2302.154726865347
 21
2554.874451812785
 31
0.0
  0
LINE
  5
81A2
330
18
100
AcDbEntity
  8
FINAS
100
AcDbLine
 10
2489.15472686551
 20
2901.87445181277
 30
0.0
 11
2470.004961689592
 21
2901.874451812771
 31
0.0
  0
LINE
  5
81C0
330
18
100
AcDbEntity
  8
FINAS
100
AcDbLine
 10
2457.158382552957
 20
2894.014071064274
 30
0.0
 11
2451.876900059149
 21
2591.438141651838
 31
0.0
  0
LINE
  5
81C2
330
18
100
AcDbEntity
  8
FINAS
100
AcDbLine
 10
2426.880707680239
 20
2566.874451812787
 30
0.0
 11
2340.354235447055
 21
2566.874451812787
 31
0.0
  0
ARC
  5
81C3
330
18
100
AcDbEntity
  8
FINAS
100
AcDbCircle
 10
2340.354235447055
 20
2561.874451812787
 30
0.0
 40
5.0
100
AcDbArc
 50
89.99999999999479
 51
137.4895529220068
  0
LINE
  5
81C4
330
18
100
AcDbEntity
  8
FINAS
100
AcDbLine
 10
2336.66846474605
 20
2565.253074955373
 30
0.0
 11
2328.468956164342
 21
2556.308156502596
 31
0.0
  0
ARC
  5
81C5
330
18
100
AcDbEntity
  8
FINAS
100
AcDbCircle
 10
2332.154726865347
 20
2552.929533360011
 30
0.0
 40
4.999999999999815
100
AcDbArc
 50
137.4895529220142
 51
180.0000000000052
  0
LINE
  5
81C6
330
18
100
AcDbEntity
  8
FINAS
100
AcDbLine
 10
2327.154726865347
 20
2552.92953336001
 30
0.0
 11
2327.154726865347
 21
2541.874451812787
 31
0.0
  0
LINE
  5
81C8
330
18
100
AcDbEntity
  8
FINAS
100
AcDbLine
 10
2336.154726865347
 20
2541.874451812787
 30
0.0
 11
2336.154726865347
 21
2549.42868014502
 31
0.0
  0
ARC
  5
81C9
330
18
100
AcDbEntity
  8
FINAS
100
AcDbCircle
 10
2341.154726865347
 20
2549.42868014502
 30
0.0
 40
5.0
100
AcDbArc
 50
137.4895529220142
 51
180.0000000000052
  0
LINE
  5
81CA
330
18
100
AcDbEntity
  8
FINAS
100
AcDbLine
 10
2337.468956164342
 20
2552.807303287606
 30
0.0
 11
2337.877580193128
 21
2553.253074955372
 31
0.0
  0
ARC
  5
81CB
330
18
100
AcDbEntity
  8
FINAS
100
AcDbCircle
 10
2341.563350894132
 20
2549.874451812786
 30
0.0
 40
4.999999999999786
100
AcDbArc
 50
89.99999999999479
 51
137.4895529220068
  0
LINE
  5
81CC
330
18
100
AcDbEntity
  8
FINAS
100
AcDbLine
 10
2341.563350894132
 20
2554.874451812786
 30
0.0
 11
2404.199501252314
 21
2554.874451812785
 31
0.0
  0
LINE
  5
81CE
330
18
100
AcDbEntity
  8
FINAS
100
AcDbLine
 10
2409.856355501807
 20
2552.531306062278
 30
0.0
 11
2418.170064000805
 21
2544.217597563282
 31
0.0
  0
LINE
  5
81D6
330
18
100
AcDbEntity
  8
FINAS
100
AcDbLine
 10
2473.785857984186
 20
2851.874451813043
 30
0.0
 11
2488.561309674387
 21
2851.874451813043
 31
0.0
  0
ARC
  5
81D7
330
18
100
AcDbEntity
  8
FINAS
100
AcDbCircle
 10
2488.561282166171
 20
2859.874423820479
 30
0.0
 40
7.999972007483393
100
AcDbArc
 50
270.0001970137752
 51
359.0001970137753
  0
LINE
  5
81D8
330
18
100
AcDbEntity
  8
FINAS
100
AcDbLine
 10
2496.560036219206
 20
2859.734832561545
 30
0.0
 11
2497.153508426761
 21
2893.734832561272
 31
0.0
  0
ARC
  5
81D9
330
18
100
AcDbEntity
  8
FINAS
100
AcDbCircle
 10
2489.15472686551
 20
2893.87445181277
 30
0.0
 40
8.000000000000547
100
AcDbArc
 50
359.0000000000048
 51
89.99999999999349
  0
ARC
  5
8200
330
18
100
AcDbEntity
  8
FINAS
100
AcDbCircle
 10
2465.157164114208
 20
2893.87445181277
 30
0.0
 40
8.0
100
AcDbArc
 50
90.0
 51
178.9999999999626
  0
LINE
  5
8207
330
18
100
AcDbEntity
  8
FINAS
100
AcDbLine
 10
2302.154726865347
 20
2566.874451812787
 30
0.0
 11
2263.955218283638
 21
2566.874451812787
 31
0.0
  0
LINE
  5
8209
330
18
100
AcDbEntity
  8
FINAS
100
AcDbLine
 10
2267.640988984643
 20
2565.253074955373
 30
0.0
 11
2275.840497566351
 21
2556.308156502596
 31
0.0
  0
LINE
  5
820B
330
18
100
AcDbEntity
  8
FINAS
100
AcDbLine
 10
2277.154726865347
 20
2554.874451812782
 30
0.0
 11
2302.154726865346
 21
2554.874451812785
 31
0.0
  0
LINE
  5
820C
330
18
100
AcDbEntity
  8
FINAS
100
AcDbLine
 10
2277.154726865347
 20
2552.92953336001
 30
0.0
 11
2277.154726865347
 21
2541.874451812788
 31
0.0
  0
ARC
  5
820D
330
18
100
AcDbEntity
  8
FINAS
100
AcDbCircle
 10
2272.154726865347
 20
2552.929533360011
 30
0.0
 40
4.999999999999815
100
AcDbArc
 50
359.9999999999948
 51
42.5104470779858
  0
ARC
  5
820E
330
18
100
AcDbEntity
  8
FINAS
100
AcDbCircle
 10
2262.746102836562
 20
2549.874451812786
 30
0.0
 40
4.999999999999786
100
AcDbArc
 50
42.51044707799317
 51
90.00000000000518
  0
LINE
  5
820F
330
18
100
AcDbEntity
  8
FINAS
100
AcDbLine
 10
2266.840497566351
 20
2552.807303287606
 30
0.0
 11
2266.431873537566
 21
2553.253074955372
 31
0.0
  0
ARC
  5
8210
330
18
100
AcDbEntity
  8
FINAS
100
AcDbCircle
 10
2263.154726865347
 20
2549.42868014502
 30
0.0
 40
5.0
100
AcDbArc
 50
359.9999999999948
 51
42.5104470779858
  0
LINE
  5
8211
330
18
100
AcDbEntity
  8
FINAS
100
AcDbLine
 10
2268.154726865347
 20
2541.874451812788
 30
0.0
 11
2268.154726865347
 21
2549.42868014502
 31
0.0
  0
ARC
  5
8212
330
18
100
AcDbEntity
  8
FINAS
100
AcDbCircle
 10
2263.955218283639
 20
2561.874451812787
 30
0.0
 40
5.0
100
AcDbArc
 50
42.51044707799317
 51
90.00000000000518
  0
LINE
  5
8222
330
18
100
AcDbEntity
  8
FINAS
100
AcDbLine
 10
2470.004961689592
 20
2901.874451812771
 30
0.0
 11
2134.304492041102
 21
2901.874451812771
 31
0.0
  0
DIMENSION
  5
8287
330
18
100
AcDbEntity
  8
COTAS
100
AcDbDimension
  2
*D0
 10
2565.418299221054
 20
2851.874451813043
 30
0.0
 11
2565.418299221054
 21
2737.58873752733
 31
0.0
 70
   160
  1
55
 71
     5
 42
49.99999999972715
  3
STANDARD
100
AcDbAlignedDimension
 13
2489.15472686551
 23
2901.87445181277
 33
0.0
 14
2488.561309674387
 24
2851.874451813043
 34
0.0
 50
270.0
100
AcDbRotatedDimension
1001
ACAD
1000
DSTYLE
1002
{
1070
    40
1040
10.0
1070
    41
1040
3.0
1070
    42
1040
0.0
1070
    43
1040
7.0
1070
    44
1040
2.0
1070
    73
1070
     0
1070
    74
1070
     0
1070
   140
1040
3.0
1070
   141
1040
1.5
1070
   147
1040
3.0
1070
   176
1070
   256
1070
   177
1070
   256
1070
   178
1070
     6
1070
   271
1070
     0
1070
   272
1070
     1
1070
   284
1070
     8
1070
   288
1070
     1
1070
   289
1070
     0
1070
   340
1005
8D2C
1002
}
  0
DIMENSION
  5
8295
330
18
100
AcDbEntity
  8
COTAS
100
AcDbDimension
  2
*D1
 10
2626.651768678974
 20
2541.874451812771
 30
0.0
 11
2626.651768678974
 21
2723.259211662159
 31
0.0
 70
   160
 71
     5
 42
359.9999999999991
  3
STANDARD
100
AcDbAlignedDimension
 13
2537.286513043282
 23
2901.87445181277
 33
0.0
 14
2456.999353057752
 24
2541.874451812771
 34
0.0
 50
270.0
100
AcDbRotatedDimension
1001
ACAD
1000
DSTYLE
1002
{
1070
    40
1040
10.0
1070
    41
1040
3.0
1070
    42
1040
0.0
1070
    43
1040
7.0
1070
    44
1040
2.0
1070
    73
1070
     0
1070
    74
1070
     0
1070
   140
1040
3.0
1070
   141
1040
1.5
1070
   147
1040
3.0
1070
   176
1070
   256
1070
   177
1070
   256
1070
   178
1070
     6
1070
   271
1070
     0
1070
   272
1070
     1
1070
   284
1070
     8
1070
   288
1070
     1
1070
   289
1070
     0
1070
   340
1005
8D2C
1002
}
  0
DIMENSION
  5
82E1
330
18
100
AcDbEntity
  8
COTAS
100
AcDbDimension
  2
*D2
 10
2821.855852727983
 20
1680.403480896913
 30
0.0
 11
2821.855852727983
 21
1872.219678351375
 31
0.0
 70
   160
 71
     5
 42
390.0000000003272
  3
STANDARD
100
AcDbAlignedDimension
 13
2922.163104327565
 23
2070.40348089724
 33
0.0
 14
2922.163104327565
 24
1680.403480896913
 34
0.0
 50
90.0
100
AcDbRotatedDimension
1001
ACAD
1000
DSTYLE
1002
{
1070
    40
1040
10.0
1070
    41
1040
3.0
1070
    42
1040
0.0
1070
    43
1040
7.0
1070
    44
1040
2.0
1070
    73
1070
     0
1070
    74
1070
     0
1070
   140
1040
3.0
1070
   141
1040
1.5
1070
   147
1040
3.0
1070
   176
1070
   256
1070
   177
1070
   256
1070
   178
1070
     6
1070
   271
1070
     0
1070
   272
1070
     1
1070
   284
1070
     8
1070
   288
1070
     1
1070
   289
1070
     0
1070
   340
1005
8D2C
1002
}
  0
DIMENSION
  5
82EF
330
18
100
AcDbEntity
  8
COTAS
100
AcDbDimension
  2
*D3
 10
2912.163104327801
 20
2171.39265231499
 30
0.0
 11
3198.629011265806
 21
2171.39265231499
 31
0.0
 70
   160
  1
600
 71
     5
 42
605.362448596376
  3
STANDARD
100
AcDbAlignedDimension
 13
3517.525552924178
 23
2060.403480897241
 33
0.0
 14
2912.163104327801
 24
2060.403480897022
 34
0.0
100
AcDbRotatedDimension
1001
ACAD
1000
DSTYLE
1002
{
1070
    40
1040
10.0
1070
    41
1040
3.0
1070
    42
1040
0.0
1070
    43
1040
7.0
1070
    44
1040
2.0
1070
    73
1070
     0
1070
    74
1070
     0
1070
   140
1040
3.0
1070
   141
1040
1.5
1070
   147
1040
3.0
1070
   176
1070
   256
1070
   177
1070
   256
1070
   178
1070
     6
1070
   271
1070
     0
1070
   272
1070
     1
1070
   284
1070
     8
1070
   288
1070
     1
1070
   289
1070
     0
1070
   340
1005
8D2C
1002
}
  0
DIMENSION
  5
8316
330
18
100
AcDbEntity
  8
COTAS
100
AcDbDimension
  2
*D4
 10
3017.163104327801
 20
2476.148337179624
 30
0.0
 11
3195.020247184944
 21
2476.148337179624
 31
0.0
 70
   160
  1
%%c50
 71
     5
 42
49.99999999999954
  3
STANDARD
100
AcDbAlignedDimension
 13
3067.163104327801
 23
2550.874451812787
 33
0.0
 14
3017.163104327801
 24
2550.874451812792
 34
0.0
100
AcDbRotatedDimension
1001
ACAD
1000
DSTYLE
1002
{
1070
    40
1040
10.0
1070
    41
1040
3.0
1070
    42
1040
0.0
1070
    43
1040
7.0
1070
    44
1040
2.0
1070
    73
1070
     0
1070
    74
1070
     0
1070
   140
1040
3.0
1070
   141
1040
1.5
1070
   147
1040
3.0
1070
   176
1070
   256
1070
   177
1070
   256
1070
   178
1070
     6
1070
   271
1070
     0
1070
   272
1070
     1
1070
   284
1070
     8
1070
   288
1070
     1
1070
   289
1070
     0
1070
   340
1005
8D2C
1002
}
  0
LINE
  5
8341
330
18
100
AcDbEntity
  8
FINAS
100
AcDbLine
 10
3509.525552924177
 20
2901.87445181277
 30
0.0
 11
3490.654382263849
 21
2901.87445181277
 31
0.0
  0
ARC
  5
8342
330
18
100
AcDbEntity
  8
FINAS
100
AcDbCircle
 10
3504.810632264226
 20
2893.87445181277
 30
0.0
 40
8.0
100
AcDbArc
 50
89.99999999999676
 51
171.6757413232915
  0
LINE
  5
8361
330
18
100
AcDbEntity
  8
FINAS
100
AcDbLine
 10
3228.116147937844
 20
2566.87445181279
 30
0.0
 11
3080.36261290951
 21
2566.874451812789
 31
0.0
  0
ARC
  5
8362
330
18
100
AcDbEntity
  8
FINAS
100
AcDbCircle
 10
3080.362612909509
 20
2561.874451812789
 30
0.0
 40
5.0
100
AcDbArc
 50
89.99999999999483
 51
137.4895529220068
  0
LINE
  5
8363
330
18
100
AcDbEntity
  8
FINAS
100
AcDbLine
 10
3076.676842208506
 20
2565.253074955375
 30
0.0
 11
3068.477333626797
 21
2556.308156502598
 31
0.0
  0
ARC
  5
8364
330
18
100
AcDbEntity
  8
FINAS
100
AcDbCircle
 10
3072.163104327801
 20
2552.929533360013
 30
0.0
 40
4.999999999999815
100
AcDbArc
 50
137.4895529220142
 51
180.0000000000052
  0
LINE
  5
8365
330
18
100
AcDbEntity
  8
FINAS
100
AcDbLine
 10
3067.163104327801
 20
2552.929533360012
 30
0.0
 11
3067.163104327801
 21
2541.874451812786
 31
0.0
  0
LINE
  5
8366
330
18
100
AcDbEntity
  8
FINAS
100
AcDbLine
 10
3067.163104327801
 20
2541.874451812786
 30
0.0
 11
3076.163104327801
 21
2541.874451812786
 31
0.0
  0
LINE
  5
8367
330
18
100
AcDbEntity
  8
FINAS
100
AcDbLine
 10
3076.163104327801
 20
2541.874451812786
 30
0.0
 11
3076.163104327801
 21
2549.428680145022
 31
0.0
  0
ARC
  5
8368
330
18
100
AcDbEntity
  8
FINAS
100
AcDbCircle
 10
3081.163104327802
 20
2549.428680145022
 30
0.0
 40
5.0
100
AcDbArc
 50
137.4895529220142
 51
180.0000000000052
  0
LINE
  5
8369
330
18
100
AcDbEntity
  8
FINAS
100
AcDbLine
 10
3077.477333626797
 20
2552.807303287608
 30
0.0
 11
3077.885957655583
 21
2553.253074955375
 31
0.0
  0
ARC
  5
836A
330
18
100
AcDbEntity
  8
FINAS
100
AcDbCircle
 10
3081.571728356586
 20
2549.874451812788
 30
0.0
 40
4.999999999999786
100
AcDbArc
 50
89.99999999999483
 51
137.4895529220068
  0
LINE
  5
836B
330
18
100
AcDbEntity
  8
FINAS
100
AcDbLine
 10
3081.571728356587
 20
2554.874451812788
 30
0.0
 11
3215.356170661373
 21
2554.87445181279
 31
0.0
  0
LINE
  5
836D
330
18
100
AcDbEntity
  8
FINAS
100
AcDbLine
 10
3221.013024910865
 20
2552.531306062283
 30
0.0
 11
3229.326733409844
 21
2544.217597563305
 31
0.0
  0
ARC
  5
836E
330
18
100
AcDbEntity
  8
FINAS
100
AcDbCircle
 10
3234.983587659336
 20
2549.874451812797
 30
0.0
 40
8.000000000000063
100
AcDbArc
 50
225.0
 51
270.0
  0
LINE
  5
836F
330
18
100
AcDbEntity
  8
FINAS
100
AcDbLine
 10
3234.983587659336
 20
2541.874451812797
 30
0.0
 11
3251.659667753125
 21
2541.874451812797
 31
0.0
  0
LINE
  5
8375
330
18
100
AcDbEntity
  8
FINAS
100
AcDbLine
 10
3388.420321137925
 20
2851.874451813043
 30
0.0
 11
3508.932135733054
 21
2851.874451813043
 31
0.0
  0
ARC
  5
8376
330
18
100
AcDbEntity
  8
FINAS
100
AcDbCircle
 10
3508.932108224837
 20
2859.874423820479
 30
0.0
 40
7.999972007483393
100
AcDbArc
 50
270.0001970137752
 51
359.0001970137753
  0
LINE
  5
8377
330
18
100
AcDbEntity
  8
FINAS
100
AcDbLine
 10
3516.930862277873
 20
2859.734832561545
 30
0.0
 11
3517.524334485428
 21
2893.734832561272
 31
0.0
  0
ARC
  5
8378
330
18
100
AcDbEntity
  8
FINAS
100
AcDbCircle
 10
3509.525552924176
 20
2893.87445181277
 30
0.0
 40
8.000000000000547
100
AcDbArc
 50
359.0000000000048
 51
89.99999999999351
  0
LINE
  5
8379
330
18
100
AcDbEntity
  8
FINAS
100
AcDbLine
 10
3253.071885225881
 20
2590.387449321023
 30
0.0
 11
3266.52938131441
 21
2816.23894506472
 31
0.0
  0
DIMENSION
  5
83F4
330
18
100
AcDbEntity
  8
COTAS
100
AcDbDimension
  2
*D5
 10
2918.306068557249
 20
2412.436817580459
 30
0.0
 11
3088.751620364244
 21
2412.436817580459
 31
0.0
 70
   160
  1
340
 71
     5
 42
340.8911036139898
  3
STANDARD
100
AcDbAlignedDimension
 13
3259.197172171239
 23
2541.874451812797
 33
0.0
 14
2918.306068557249
 24
2541.874451812802
 34
0.0
100
AcDbRotatedDimension
1001
ACAD
1000
DSTYLE
1002
{
1070
    40
1040
10.0
1070
    41
1040
3.0
1070
    42
1040
0.0
1070
    43
1040
7.0
1070
    44
1040
2.0
1070
    73
1070
     0
1070
    74
1070
     0
1070
   140
1040
3.0
1070
   141
1040
1.5
1070
   147
1040
3.0
1070
   176
1070
   256
1070
   177
1070
   256
1070
   178
1070
     6
1070
   271
1070
     0
1070
   272
1070
     1
1070
   284
1070
     8
1070
   288
1070
     1
1070
   289
1070
     0
1070
   340
1005
8D2C
1002
}
  0
DIMENSION
  5
8402
330
18
100
AcDbEntity
  8
COTAS
100
AcDbDimension
  2
*D6
 10
2460.513209751312
 20
2412.43681758046
 30
0.0
 11
2300.248412212472
 21
2412.43681758046
 31
0.0
 70
   160
  1
320
 71
     5
 42
316.7169657719296
  3
STANDARD
100
AcDbAlignedDimension
 13
2143.796243979382
 23
2541.874451812776
 33
0.0
 14
2460.513209751312
 24
2541.874451812776
 34
0.0
100
AcDbRotatedDimension
1001
ACAD
1000
DSTYLE
1002
{
1070
    40
1040
10.0
1070
    41
1040
3.0
1070
    42
1040
0.0
1070
    43
1040
7.0
1070
    44
1040
2.0
1070
    73
1070
     0
1070
    74
1070
     0
1070
   140
1040
3.0
1070
   141
1040
1.5
1070
   147
1040
3.0
1070
   176
1070
   256
1070
   177
1070
   256
1070
   178
1070
     6
1070
   271
1070
     0
1070
   272
1070
     1
1070
   284
1070
     8
1070
   288
1070
     1
1070
   289
1070
     0
1070
   340
1005
8D2C
1002
}
  0
LINE
  5
8425
330
18
100
AcDbEntity
  8
FINAS
100
AcDbLine
 10
2920.163104327802
 20
2901.87445181277
 30
0.0
 11
2944.160667079112
 21
2901.87445181277
 31
0.0
  0
ARC
  5
8426
330
18
100
AcDbEntity
  8
FINAS
100
AcDbCircle
 10
2944.160667079112
 20
2893.87445181277
 30
0.0
 40
8.0
100
AcDbArc
 50
0.9999999998453951
 51
90.0
  0
LINE
  5
8427
330
18
100
AcDbEntity
  8
FINAS
100
AcDbLine
 10
2952.159448640364
 20
2894.014071064246
 30
0.0
 11
2957.440931133159
 21
2591.438141651924
 31
0.0
  0
LINE
  5
8429
330
18
100
AcDbEntity
  8
FINAS
100
AcDbLine
 10
2982.43712351207
 20
2566.874451812788
 30
0.0
 11
3003.963595746093
 21
2566.874451812789
 31
0.0
  0
ARC
  5
842A
330
18
100
AcDbEntity
  8
FINAS
100
AcDbCircle
 10
3003.963595746093
 20
2561.874451812789
 30
0.0
 40
5.0
100
AcDbArc
 50
42.51044707800053
 51
90.0
  0
LINE
  5
842B
330
18
100
AcDbEntity
  8
FINAS
100
AcDbLine
 10
3007.649366447097
 20
2565.253074955375
 30
0.0
 11
3015.848875028805
 21
2556.308156502603
 31
0.0
  0
ARC
  5
842C
330
18
100
AcDbEntity
  8
FINAS
100
AcDbCircle
 10
3012.163104327802
 20
2552.929533360016
 30
0.0
 40
5.000000000000065
100
AcDbArc
 50
0.0000000000052231
 51
42.51044707800437
  0
LINE
  5
842D
330
18
100
AcDbEntity
  8
FINAS
100
AcDbLine
 10
3017.163104327801
 20
2552.929533360016
 30
0.0
 11
3017.163104327801
 21
2541.874451812791
 31
0.0
  0
LINE
  5
842E
330
18
100
AcDbEntity
  8
FINAS
100
AcDbLine
 10
3017.163104327801
 20
2541.874451812791
 30
0.0
 11
3008.163104327801
 21
2541.874451812792
 31
0.0
  0
LINE
  5
842F
330
18
100
AcDbEntity
  8
FINAS
100
AcDbLine
 10
3008.163104327801
 20
2541.874451812792
 30
0.0
 11
3008.163104327801
 21
2549.428680145026
 31
0.0
  0
ARC
  5
8430
330
18
100
AcDbEntity
  8
FINAS
100
AcDbCircle
 10
3003.163104327802
 20
2549.428680145026
 30
0.0
 40
4.999999999999545
100
AcDbArc
 50
0.000000000000007
 51
42.51044707800053
  0
LINE
  5
8431
330
18
100
AcDbEntity
  8
FINAS
100
AcDbLine
 10
3006.848875028806
 20
2552.807303287612
 30
0.0
 11
3006.440251000022
 21
2553.253074955375
 31
0.0
  0
ARC
  5
8432
330
18
100
AcDbEntity
  8
FINAS
100
AcDbCircle
 10
3002.754480299018
 20
2549.874451812788
 30
0.0
 40
5.000000000000373
100
AcDbArc
 50
42.51044707800821
 51
90.00000000000518
  0
LINE
  5
8433
330
18
100
AcDbEntity
  8
FINAS
100
AcDbLine
 10
3002.754480299018
 20
2554.874451812788
 30
0.0
 11
2995.618406104057
 21
2554.874451812788
 31
0.0
  0
LINE
  5
8435
330
18
100
AcDbEntity
  8
FINAS
100
AcDbLine
 10
2989.961551854565
 20
2552.53130606228
 30
0.0
 11
2981.64784335556
 21
2544.217597563277
 31
0.0
  0
ARC
  5
8436
330
18
100
AcDbEntity
  8
FINAS
100
AcDbCircle
 10
2975.990989106068
 20
2549.874451812769
 30
0.0
 40
8.000000000000063
100
AcDbArc
 50
270.0
 51
315.0
  0
LINE
  5
8437
330
18
100
AcDbEntity
  8
FINAS
100
AcDbLine
 10
2975.990989106068
 20
2541.874451812797
 30
0.0
 11
2926.167646662196
 21
2541.874451812797
 31
0.0
  0
ARC
  5
8438
330
18
100
AcDbEntity
  8
FINAS
100
AcDbCircle
 10
2926.167646662196
 20
2549.874451812797
 30
0.0
 40
8.0
100
AcDbArc
 50
181.0000000000377
 51
270.0
  0
LINE
  5
8439
330
18
100
AcDbEntity
  8
FINAS
100
AcDbLine
 10
2918.168865100945
 20
2549.734832561294
 30
0.0
 11
2912.16432276656
 21
2893.734832561446
 31
0.0
  0
ARC
  5
843A
330
18
100
AcDbEntity
  8
FINAS
100
AcDbCircle
 10
2920.163104327814
 20
2893.874451812957
 30
0.0
 40
8.000000000002597
100
AcDbArc
 50
90.00000000008794
 51
181.0000000000894
  0
LINE
  5
843E
330
18
100
AcDbEntity
  8
FINAS
100
AcDbLine
 10
2948.442301876751
 20
2591.281069994012
 30
0.0
 11
2943.21227068007
 21
2890.909356625639
 31
0.0
  0
ARC
  5
843F
330
18
100
AcDbEntity
  8
FINAS
100
AcDbCircle
 10
2941.212575289757
 20
2890.87445181277
 30
0.0
 40
1.999999999999932
100
AcDbArc
 50
0.9999999998454715
 51
90.0
  0
LINE
  5
8440
330
18
100
AcDbEntity
  8
FINAS
100
AcDbLine
 10
2941.212575289757
 20
2892.87445181277
 30
0.0
 11
2923.215926506723
 21
2892.87445181277
 31
0.0
  0
ARC
  5
8441
330
18
100
AcDbEntity
  8
FINAS
100
AcDbCircle
 10
2923.215926506723
 20
2890.87445181277
 30
0.0
 40
2.0
100
AcDbArc
 50
90.0
 51
180.9999999998455
  0
LINE
  5
8442
330
18
100
AcDbEntity
  8
FINAS
100
AcDbLine
 10
2921.21623111641
 20
2890.839546999901
 30
0.0
 11
2927.116043061238
 21
2552.839546999928
 31
0.0
  0
ARC
  5
8443
330
18
100
AcDbEntity
  8
FINAS
100
AcDbCircle
 10
2929.115738451551
 20
2552.874451812797
 30
0.0
 40
1.999999999999932
100
AcDbArc
 50
180.9999999998455
 51
270.0
  0
LINE
  5
8444
330
18
100
AcDbEntity
  8
FINAS
100
AcDbLine
 10
2929.115738451551
 20
2550.874451812797
 30
0.0
 11
2974.74834841895
 21
2550.874451812795
 31
0.0
  0
ARC
  5
8445
330
18
100
AcDbEntity
  8
FINAS
100
AcDbCircle
 10
2974.748348418982
 20
2552.874451812782
 30
0.0
 40
1.999999999985902
100
AcDbArc
 50
269.999999999049
 51
314.9999999990512
  0
LINE
  5
8446
330
18
100
AcDbEntity
  8
FINAS
100
AcDbLine
 10
2976.162561981322
 20
2551.460238250395
 30
0.0
 11
2979.434535654435
 21
2554.732211923508
 31
0.0
  0
ARC
  5
8450
330
18
100
AcDbEntity
  8
FINAS
100
AcDbCircle
 10
3215.356170661373
 20
2546.874451812791
 30
0.0
 40
8.0
100
AcDbArc
 50
45.00000000000215
 51
90.00000000000021
  0
ARC
  5
8451
330
18
100
AcDbEntity
  8
FINAS
100
AcDbCircle
 10
2995.618406104057
 20
2546.874451812788
 30
0.0
 40
8.0
100
AcDbArc
 50
90.0
 51
134.9999999999978
  0
ARC
  5
8452
330
18
100
AcDbEntity
  8
FINAS
100
AcDbCircle
 10
2982.43712351207
 20
2591.874451812789
 30
0.0
 40
25.0
100
AcDbArc
 50
180.999999999846
 51
270.0
  0
ARC
  5
8453
330
18
100
AcDbEntity
  8
FINAS
100
AcDbCircle
 10
3228.116147937844
 20
2591.87445181279
 30
0.0
 40
25.0
100
AcDbArc
 50
270.0000000000002
 51
356.5900286251373
  0
ARC
  5
8455
330
18
100
AcDbEntity
  8
FINAS
100
AcDbCircle
 10
2982.43712351207
 20
2591.874451812789
 30
0.0
 40
34.0
100
AcDbArc
 50
180.999999999846
 51
262.9526861865503
  0
ARC
  5
8456
330
18
100
AcDbEntity
  8
FINAS
100
AcDbCircle
 10
2978.020322092062
 20
2556.146425485881
 30
0.0
 40
2.0
100
AcDbArc
 50
315.0
 51
82.95268618655638
  0
ARC
  5
846B
330
18
100
AcDbEntity
  8
FINAS
100
AcDbCircle
 10
2426.880707680239
 20
2591.874451812787
 30
0.0
 40
25.0
100
AcDbArc
 50
270.0
 51
358.9999999999625
  0
ARC
  5
846E
330
18
100
AcDbEntity
  8
FINAS
100
AcDbCircle
 10
2404.199501252314
 20
2546.874451812785
 30
0.0
 40
8.0
100
AcDbArc
 50
45.00000000000213
 51
90.0000000000004
  0
ARC
  5
846F
330
18
100
AcDbEntity
  8
FINAS
100
AcDbCircle
 10
2423.826918250296
 20
2549.874451812775
 30
0.0
 40
8.0
100
AcDbArc
 50
225.0000000000098
 51
298.9550243718578
  0
DIMENSION
  5
85DB
330
18
100
AcDbEntity
  8
COTAS
100
AcDbDimension
  2
*D7
 10
3042.163104327801
 20
2115.567036158608
 30
0.0
 11
2973.658896704756
 21
2115.567036158608
 31
0.0
 70
   160
 71
     5
 42
130.0
  3
STANDARD
100
AcDbAlignedDimension
 13
2912.163104327801
 23
2060.403480897022
 33
0.0
 14
3042.163104327801
 24
1942.903480897077
 34
0.0
100
AcDbRotatedDimension
1001
ACAD
1000
DSTYLE
1002
{
1070
    40
1040
10.0
1070
    41
1040
3.0
1070
    42
1040
0.0
1070
    43
1040
7.0
1070
    44
1040
2.0
1070
    73
1070
     0
1070
    74
1070
     0
1070
   140
1040
3.0
1070
   141
1040
1.5
1070
   147
1040
3.0
1070
   176
1070
   256
1070
   177
1070
   256
1070
   178
1070
     6
1070
   271
1070
     0
1070
   272
1070
     1
1070
   284
1070
     8
1070
   288
1070
     1
1070
   289
1070
     0
1070
   340
1005
8D2C
1002
}
  0
LINE
  5
8657
330
18
100
AcDbEntity
  8
0
100
AcDbLine
 10
3487.525552924177
 20
1720.403480896913
 30
0.0
 11
2982.163104327801
 21
1720.403480896913
 31
0.0
  0
LINE
  5
8658
330
18
100
AcDbEntity
  8
0
100
AcDbLine
 10
3497.525552924177
 20
2020.403480897241
 30
0.0
 11
3497.525552924177
 21
1730.403480896913
 31
0.0
  0
LINE
  5
865B
330
18
100
AcDbEntity
  8
0
100
AcDbLine
 10
2952.163104327802
 20
2000.403480897241
 30
0.0
 11
2952.163104327802
 21
1750.403480896913
 31
0.0
  0
LINE
  5
865C
330
18
100
AcDbEntity
  8
0
100
AcDbLine
 10
3487.525552924177
 20
2030.40348089724
 30
0.0
 11
2977.163104328038
 21
2030.403480897241
 31
0.0
  0
ARC
  5
865D
330
18
100
AcDbEntity
  8
0
100
AcDbCircle
 10
2977.954165008489
 20
2004.327596996662
 30
0.0
 40
26.08788029328274
100
AcDbArc
 50
91.73764163700429
 51
188.6512161779331
  0
ARC
  5
865E
330
18
100
AcDbEntity
  8
0
100
AcDbCircle
 10
2982.163104327801
 20
1750.403480896913
 30
0.0
 40
30.0
100
AcDbArc
 50
180.0
 51
270.0
  0
LINE
  5
8661
330
18
100
AcDbEntity
  8
0
100
AcDbLine
 10
3267.459923940396
 20
2000.327596996662
 30
0.0
 11
3267.459923940396
 21
1750.479364797491
 31
0.0
  0
ARC
  5
8670
330
18
100
AcDbEntity
  8
0
100
AcDbCircle
 10
3241.372043647114
 20
2000.327596996662
 30
0.0
 40
26.08788029328207
100
AcDbArc
 50
359.999999999999
 51
88.2623583629967
  0
LINE
  5
867F
330
18
100
AcDbEntity
  8
FINAS
100
AcDbLine
 10
3312.292306558628
 20
2839.660324329902
 30
0.0
 11
3318.340350692076
 21
2841.373838361742
 31
0.0
  0
ARC
  5
8696
330
18
100
AcDbEntity
  8
FINAS
100
AcDbCircle
 10
3281.502823687232
 20
2815.346743569659
 30
0.0
 40
15.0
100
AcDbArc
 50
105.8183303931782
 51
176.5900286251373
  0
ARC
  5
8698
330
18
100
AcDbEntity
  8
FINAS
100
AcDbCircle
 10
3491.947592713037
 20
2895.75652872526
 30
0.0
 40
5.0
100
AcDbArc
 50
285.8183303931836
 51
351.6757413232917
  0
ARC
  5
869C
330
18
100
AcDbEntity
  8
FINAS
100
AcDbCircle
 10
3461.297035560519
 20
2887.072703242877
 30
0.0
 40
5.0
100
AcDbArc
 50
285.8183303931772
 51
321.3718162971791
  0
ARC
  5
869D
330
18
100
AcDbEntity
  8
FINAS
100
AcDbCircle
 10
3479.302262297961
 20
2892.17389099553
 30
0.0
 40
5.0
100
AcDbArc
 50
250.2648444891634
 51
285.8183303931792
  0
ARC
  5
86BB
330
18
100
AcDbEntity
  8
FINAS
100
AcDbCircle
 10
3473.868398154922
 20
2877.026987770647
 30
0.0
 40
11.092096098053
100
AcDbArc
 50
70.2648444891645
 51
141.3718162971816
  0
ARC
  5
86BC
330
18
100
AcDbEntity
  8
FINAS
100
AcDbCircle
 10
3437.243764689629
 20
2880.258001458383
 30
0.0
 40
5.0
100
AcDbArc
 50
285.8183303931772
 51
321.3718162971791
  0
ARC
  5
86BD
330
18
100
AcDbEntity
  8
FINAS
100
AcDbCircle
 10
3455.248991427071
 20
2885.359189211035
 30
0.0
 40
5.0
100
AcDbArc
 50
250.2648444891634
 51
285.8183303931792
  0
ARC
  5
86BE
330
18
100
AcDbEntity
  8
FINAS
100
AcDbCircle
 10
3449.815127284033
 20
2870.212285986152
 30
0.0
 40
11.092096098053
100
AcDbArc
 50
70.2648444891645
 51
141.3718162971816
  0
ARC
  5
86BF
330
18
100
AcDbEntity
  8
FINAS
100
AcDbCircle
 10
3413.19049381874
 20
2873.443299673887
 30
0.0
 40
5.0
100
AcDbArc
 50
285.8183303931772
 51
321.3718162971791
  0
ARC
  5
86C0
330
18
100
AcDbEntity
  8
FINAS
100
AcDbCircle
 10
3431.195720556181
 20
2878.544487426541
 30
0.0
 40
5.0
100
AcDbArc
 50
250.2648444891634
 51
285.8183303931792
  0
ARC
  5
86C1
330
18
100
AcDbEntity
  8
FINAS
100
AcDbCircle
 10
3425.761856413144
 20
2863.397584201657
 30
0.0
 40
11.092096098053
100
AcDbArc
 50
70.2648444891645
 51
141.3718162971816
  0
ARC
  5
86C2
330
18
100
AcDbEntity
  8
FINAS
100
AcDbCircle
 10
3389.13722294785
 20
2866.628597889393
 30
0.0
 40
5.0
100
AcDbArc
 50
285.8183303931772
 51
321.3718162971791
  0
ARC
  5
86C3
330
18
100
AcDbEntity
  8
FINAS
100
AcDbCircle
 10
3407.142449685292
 20
2871.729785642046
 30
0.0
 40
5.0
100
AcDbArc
 50
250.2648444891634
 51
285.8183303931792
  0
ARC
  5
86C4
330
18
100
AcDbEntity
  8
FINAS
100
AcDbCircle
 10
3401.708585542254
 20
2856.582882417162
 30
0.0
 40
11.092096098053
100
AcDbArc
 50
70.2648444891645
 51
141.3718162971816
  0
ARC
  5
86C5
330
18
100
AcDbEntity
  8
FINAS
100
AcDbCircle
 10
3365.08395207696
 20
2859.813896104898
 30
0.0
 40
5.0
100
AcDbArc
 50
285.8183303931772
 51
321.3718162971791
  0
ARC
  5
86C6
330
18
100
AcDbEntity
  8
FINAS
100
AcDbCircle
 10
3383.089178814401
 20
2864.915083857551
 30
0.0
 40
5.0
100
AcDbArc
 50
250.2648444891634
 51
285.8183303931792
  0
ARC
  5
86C7
330
18
100
AcDbEntity
  8
FINAS
100
AcDbCircle
 10
3377.655314671364
 20
2849.768180632668
 30
0.0
 40
11.092096098053
100
AcDbArc
 50
70.2648444891645
 51
141.3718162971816
  0
ARC
  5
86C8
330
18
100
AcDbEntity
  8
FINAS
100
AcDbCircle
 10
3341.030681206071
 20
2852.999194320403
 30
0.0
 40
5.0
100
AcDbArc
 50
285.8183303931772
 51
321.3718162971791
  0
ARC
  5
86C9
330
18
100
AcDbEntity
  8
FINAS
100
AcDbCircle
 10
3359.035907943512
 20
2858.100382073056
 30
0.0
 40
5.0
100
AcDbArc
 50
250.2648444891634
 51
285.8183303931792
  0
ARC
  5
86CA
330
18
100
AcDbEntity
  8
FINAS
100
AcDbCircle
 10
3353.602043800474
 20
2842.953478848173
 30
0.0
 40
11.092096098053
100
AcDbArc
 50
70.2648444891645
 51
141.3718162971816
  0
ARC
  5
86CB
330
18
100
AcDbEntity
  8
FINAS
100
AcDbCircle
 10
3316.977410335181
 20
2846.184492535908
 30
0.0
 40
5.0
100
AcDbArc
 50
285.8183303931772
 51
321.3718162971791
  0
ARC
  5
86CC
330
18
100
AcDbEntity
  8
FINAS
100
AcDbCircle
 10
3334.982637072623
 20
2851.285680288561
 30
0.0
 40
5.0
100
AcDbArc
 50
250.2648444891634
 51
285.8183303931792
  0
ARC
  5
86CD
330
18
100
AcDbEntity
  8
FINAS
100
AcDbCircle
 10
3329.548772929584
 20
2836.138777063677
 30
0.0
 40
11.092096098053
100
AcDbArc
 50
70.2648444891645
 51
141.3718162971816
  0
ARC
  5
86CE
330
18
100
AcDbEntity
  8
FINAS
100
AcDbCircle
 10
3292.924139464291
 20
2839.369790751413
 30
0.0
 40
5.0
100
AcDbArc
 50
285.8183303931772
 51
321.3718162971791
  0
ARC
  5
86CF
330
18
100
AcDbEntity
  8
FINAS
100
AcDbCircle
 10
3310.929366201733
 20
2844.470978504066
 30
0.0
 40
5.0
100
AcDbArc
 50
250.2648444891634
 51
285.8183303931792
  0
ARC
  5
86D0
330
18
100
AcDbEntity
  8
FINAS
100
AcDbCircle
 10
3305.495502058695
 20
2829.324075279183
 30
0.0
 40
11.092096098053
100
AcDbArc
 50
70.2648444891645
 51
141.3718162971816
  0
LINE
  5
86D1
330
18
100
AcDbEntity
  8
FINAS
100
AcDbLine
 10
3478.878570547401
 20
1993.187499635974
 30
0.0
 11
3478.878570547402
 21
1757.619462158179
 31
0.0
  0
LINE
  5
86D2
330
18
100
AcDbEntity
  8
FINAS
100
AcDbLine
 10
3464.446608024868
 20
1993.187499635974
 30
0.0
 11
3464.446608024868
 21
1757.619462158179
 31
0.0
  0
ARC
  5
86E2
330
18
100
AcDbEntity
  8
0
 62
     8
100
AcDbCircle
 10
3471.662589286135
 20
1993.187499635974
 30
0.0
 40
7.215981261266506
100
AcDbArc
 50
0.0
 51
180.0
  0
ARC
  5
86E3
330
18
100
AcDbEntity
  8
FINAS
100
AcDbCircle
 10
3471.662589286135
 20
1757.619462158179
 30
0.0
 40
7.215981261266506
100
AcDbArc
 50
180.0
 51
0.0
  0
LINE
  5
86E4
330
18
100
AcDbEntity
  8
FINAS
100
AcDbLine
 10
3454.825299676512
 20
1993.187499635974
 30
0.0
 11
3454.825299676512
 21
1757.619462158179
 31
0.0
  0
LINE
  5
86E5
330
18
100
AcDbEntity
  8
FINAS
100
AcDbLine
 10
3440.393337153978
 20
1993.187499635974
 30
0.0
 11
3440.393337153979
 21
1757.619462158179
 31
0.0
  0
ARC
  5
86E6
330
18
100
AcDbEntity
  8
0
 62
     8
100
AcDbCircle
 10
3447.609318415246
 20
1993.187499635974
 30
0.0
 40
7.215981261266506
100
AcDbArc
 50
0.0
 51
180.0
  0
ARC
  5
86E7
330
18
100
AcDbEntity
  8
FINAS
100
AcDbCircle
 10
3447.609318415246
 20
1757.619462158179
 30
0.0
 40
7.215981261266506
100
AcDbArc
 50
180.0
 51
0.0
  0
LINE
  5
86EC
330
18
100
AcDbEntity
  8
FINAS
100
AcDbLine
 10
3430.772028805622
 20
1993.187499635974
 30
0.0
 11
3430.772028805622
 21
1757.619462158179
 31
0.0
  0
LINE
  5
86ED
330
18
100
AcDbEntity
  8
FINAS
100
AcDbLine
 10
3416.340066283088
 20
1993.187499635974
 30
0.0
 11
3416.340066283089
 21
1757.619462158179
 31
0.0
  0
ARC
  5
86EE
330
18
100
AcDbEntity
  8
0
 62
     8
100
AcDbCircle
 10
3423.556047544356
 20
1993.187499635974
 30
0.0
 40
7.215981261266506
100
AcDbArc
 50
0.0
 51
180.0
  0
ARC
  5
86EF
330
18
100
AcDbEntity
  8
FINAS
100
AcDbCircle
 10
3423.556047544356
 20
1757.619462158179
 30
0.0
 40
7.215981261266506
100
AcDbArc
 50
180.0
 51
0.0
  0
LINE
  5
86F0
330
18
100
AcDbEntity
  8
FINAS
100
AcDbLine
 10
3406.718757934732
 20
1993.187499635974
 30
0.0
 11
3406.718757934733
 21
1757.619462158179
 31
0.0
  0
LINE
  5
86F1
330
18
100
AcDbEntity
  8
FINAS
100
AcDbLine
 10
3392.286795412199
 20
1993.187499635974
 30
0.0
 11
3392.286795412199
 21
1757.619462158179
 31
0.0
  0
ARC
  5
86F2
330
18
100
AcDbEntity
  8
0
 62
     8
100
AcDbCircle
 10
3399.502776673466
 20
1993.187499635974
 30
0.0
 40
7.215981261266506
100
AcDbArc
 50
0.0
 51
180.0
  0
ARC
  5
86F3
330
18
100
AcDbEntity
  8
FINAS
100
AcDbCircle
 10
3399.502776673466
 20
1757.619462158179
 30
0.0
 40
7.215981261266506
100
AcDbArc
 50
180.0
 51
0.0
  0
LINE
  5
86F4
330
18
100
AcDbEntity
  8
FINAS
100
AcDbLine
 10
3382.665487063842
 20
1993.187499635974
 30
0.0
 11
3382.665487063843
 21
1757.619462158179
 31
0.0
  0
LINE
  5
86F5
330
18
100
AcDbEntity
  8
FINAS
100
AcDbLine
 10
3368.233524541309
 20
1993.187499635974
 30
0.0
 11
3368.233524541309
 21
1757.619462158179
 31
0.0
  0
ARC
  5
86F6
330
18
100
AcDbEntity
  8
0
 62
     8
100
AcDbCircle
 10
3375.449505802576
 20
1993.187499635974
 30
0.0
 40
7.215981261266506
100
AcDbArc
 50
0.0
 51
180.0
  0
ARC
  5
86F7
330
18
100
AcDbEntity
  8
FINAS
100
AcDbCircle
 10
3375.449505802576
 20
1757.619462158179
 30
0.0
 40
7.215981261266506
100
AcDbArc
 50
180.0
 51
0.0
  0
LINE
  5
86F8
330
18
100
AcDbEntity
  8
FINAS
100
AcDbLine
 10
3358.612216192952
 20
1993.187499635974
 30
0.0
 11
3358.612216192954
 21
1757.619462158179
 31
0.0
  0
LINE
  5
86F9
330
18
100
AcDbEntity
  8
FINAS
100
AcDbLine
 10
3344.180253670419
 20
1993.187499635974
 30
0.0
 11
3344.180253670419
 21
1757.619462158179
 31
0.0
  0
ARC
  5
86FA
330
18
100
AcDbEntity
  8
0
 62
     8
100
AcDbCircle
 10
3351.396234931686
 20
1993.187499635974
 30
0.0
 40
7.215981261266506
100
AcDbArc
 50
0.0
 51
180.0
  0
ARC
  5
86FB
330
18
100
AcDbEntity
  8
FINAS
100
AcDbCircle
 10
3351.396234931686
 20
1757.619462158179
 30
0.0
 40
7.215981261266506
100
AcDbArc
 50
180.0
 51
0.0
  0
LINE
  5
86FC
330
18
100
AcDbEntity
  8
FINAS
100
AcDbLine
 10
3334.558945322063
 20
1993.187499635974
 30
0.0
 11
3334.558945322064
 21
1757.619462158179
 31
0.0
  0
LINE
  5
86FD
330
18
100
AcDbEntity
  8
FINAS
100
AcDbLine
 10
3320.126982799529
 20
1993.187499635974
 30
0.0
 11
3320.12698279953
 21
1757.619462158179
 31
0.0
  0
ARC
  5
86FE
330
18
100
AcDbEntity
  8
0
 62
     8
100
AcDbCircle
 10
3327.342964060797
 20
1993.187499635974
 30
0.0
 40
7.215981261266506
100
AcDbArc
 50
0.0
 51
180.0
  0
ARC
  5
86FF
330
18
100
AcDbEntity
  8
FINAS
100
AcDbCircle
 10
3327.342964060797
 20
1757.619462158179
 30
0.0
 40
7.215981261266506
100
AcDbArc
 50
180.0
 51
0.0
  0
LINE
  5
8700
330
18
100
AcDbEntity
  8
FINAS
100
AcDbLine
 10
3310.505674451173
 20
1993.187499635974
 30
0.0
 11
3310.505674451174
 21
1757.619462158179
 31
0.0
  0
LINE
  5
8701
330
18
100
AcDbEntity
  8
FINAS
100
AcDbLine
 10
3296.07371192864
 20
1993.187499635974
 30
0.0
 11
3296.07371192864
 21
1757.619462158179
 31
0.0
  0
ARC
  5
8702
330
18
100
AcDbEntity
  8
0
 62
     8
100
AcDbCircle
 10
3303.289693189907
 20
1993.187499635974
 30
0.0
 40
7.215981261266506
100
AcDbArc
 50
0.0
 51
180.0
  0
ARC
  5
8703
330
18
100
AcDbEntity
  8
FINAS
100
AcDbCircle
 10
3303.289693189907
 20
1757.619462158179
 30
0.0
 40
7.215981261266506
100
AcDbArc
 50
180.0
 51
0.0
  0
LINE
  5
8705
330
18
100
AcDbEntity
  8
FINAS
100
AcDbLine
 10
3245.260023487232
 20
2002.403480897241
 30
0.0
 11
3245.260023487233
 21
1748.403480896913
 31
0.0
  0
LINE
  5
871A
330
18
100
AcDbEntity
  8
FINAS
100
AcDbLine
 10
3225.260023487232
 20
2022.40348089724
 30
0.0
 11
2977.163104328038
 21
2022.403480897241
 31
0.0
  0
LINE
  5
871B
330
18
100
AcDbEntity
  8
FINAS
100
AcDbLine
 10
2960.163104327801
 20
2000.403480897241
 30
0.0
 11
2960.163104327801
 21
1750.403480896913
 31
0.0
  0
ARC
  5
871C
330
18
100
AcDbEntity
  8
FINAS
100
AcDbCircle
 10
2977.954165008489
 20
2004.327596996662
 30
0.0
 40
18.08788029328273
100
AcDbArc
 50
91.73764163700429
 51
188.6512161779331
  0
ARC
  5
871D
330
18
100
AcDbEntity
  8
FINAS
100
AcDbCircle
 10
2982.163104327801
 20
1750.403480896913
 30
0.0
 40
22.0
100
AcDbArc
 50
180.0
 51
270.0
  0
LINE
  5
871E
330
18
100
AcDbEntity
  8
FINAS
100
AcDbLine
 10
3225.260023487233
 20
1728.403480896913
 30
0.0
 11
2982.163104327801
 21
1728.403480896913
 31
0.0
  0
ARC
  5
871F
330
18
100
AcDbEntity
  8
FINAS
100
AcDbCircle
 10
3225.260023487232
 20
2002.403480897241
 30
0.0
 40
20.0
100
AcDbArc
 50
0.0
 51
89.99999999999992
  0
ARC
  5
8720
330
18
100
AcDbEntity
  8
FINAS
100
AcDbCircle
 10
3225.260023487233
 20
1748.403480896913
 30
0.0
 40
20.0
100
AcDbArc
 50
270.0
 51
0.0000000000000509
  0
ARC
  5
873A
330
18
100
AcDbEntity
  8
0
100
AcDbCircle
 10
3241.372043647114
 20
1750.479364797491
 30
0.0
 40
26.08788029328207
100
AcDbArc
 50
271.7376416370033
 51
0.0000000000010318
  0
LINE
  5
873D
330
18
100
AcDbEntity
  8
FINAS
100
AcDbLine
 10
3495.525552924176
 20
2016.42790145572
 30
0.0
 11
3495.525552924178
 21
1734.379060338434
 31
0.0
  0
LINE
  5
876C
330
18
100
AcDbEntity
  8
FINAS
100
AcDbLine
 10
3279.867295258954
 20
2821.119528578673
 30
0.0
 11
3455.590842144527
 21
2870.90500577912
 31
0.0
  0
ARC
  5
876D
330
18
100
AcDbEntity
  8
FINAS
100
AcDbCircle
 10
3281.502823687232
 20
2815.346743569659
 30
0.0
 40
6.0
100
AcDbArc
 50
105.8183303931782
 51
176.5900286251373
  0
LINE
  5
876E
330
18
100
AcDbEntity
  8
FINAS
100
AcDbLine
 10
3259.645503685297
 20
2549.398611015432
 30
0.0
 11
3275.513446738103
 21
2815.703624167684
 31
0.0
  0
ARC
  5
876F
330
18
100
AcDbEntity
  8
FINAS
100
AcDbCircle
 10
3251.659667753125
 20
2549.874451812797
 30
0.0
 40
8.0
100
AcDbArc
 50
270.0
 51
356.5900286251374
  0
ARC
  5
8775
330
18
100
AcDbEntity
  8
FINAS
100
AcDbCircle
 10
3228.116147937844
 20
2591.87445181279
 30
0.0
 40
34.0
100
AcDbArc
 50
277.6461819644289
 51
306.299045178206
  0
LINE
  5
8776
330
18
100
AcDbEntity
  8
FINAS
100
AcDbLine
 10
3231.491924960482
 20
2554.780328074024
 30
0.0
 11
3234.812014784083
 21
2551.460238250424
 31
0.0
  0
LINE
  5
8777
330
18
100
AcDbEntity
  8
FINAS
100
AcDbLine
 10
3236.226228346455
 20
2550.874451812797
 30
0.0
 11
3248.833103596331
 21
2550.874451812797
 31
0.0
  0
LINE
  5
8778
330
18
100
AcDbEntity
  8
FINAS
100
AcDbLine
 10
3250.829562579375
 20
2552.755491613456
 30
0.0
 11
3251.424597852351
 21
2562.741718288747
 31
0.0
  0
ARC
  5
8779
330
18
100
AcDbEntity
  8
FINAS
100
AcDbCircle
 10
3249.428138869308
 20
2562.860678488088
 30
0.0
 40
2.0
100
AcDbArc
 50
356.5900286251466
 51
126.2990451782073
  0
ARC
  5
877A
330
18
100
AcDbEntity
  8
FINAS
100
AcDbCircle
 10
3232.906138522856
 20
2556.194541636397
 30
0.0
 40
2.0
100
AcDbArc
 50
97.64618196442661
 51
224.9999999999908
  0
ARC
  5
877B
330
18
100
AcDbEntity
  8
FINAS
100
AcDbCircle
 10
3236.226228346455
 20
2552.874451812797
 30
0.0
 40
2.0
100
AcDbArc
 50
225.0
 51
270.0
  0
ARC
  5
877C
330
18
100
AcDbEntity
  8
FINAS
100
AcDbCircle
 10
3248.833103596331
 20
2552.874451812797
 30
0.0
 40
2.0
100
AcDbArc
 50
270.0
 51
356.5900286251366
  0
LINE
  5
87A8
330
18
100
AcDbEntity
  8
FINAS
100
AcDbLine
 10
3465.7411043003
 20
2863.905205042417
 30
0.0
 11
3466.154750628953
 21
2859.177205871062
 31
0.0
  0
LINE
  5
87A9
330
18
100
AcDbEntity
  8
FINAS
100
AcDbLine
 10
3480.665202654857
 20
2887.363236821365
 30
0.0
 11
3493.310533069936
 21
2890.945874551082
 31
0.0
  0
LINE
  5
87AA
330
18
100
AcDbEntity
  8
FINAS
100
AcDbLine
 10
3456.611931783966
 20
2880.54853503687
 30
0.0
 11
3462.659975917415
 21
2882.26204906871
 31
0.0
  0
LINE
  5
87AB
330
18
100
AcDbEntity
  8
FINAS
100
AcDbLine
 10
3432.558660913077
 20
2873.733833252375
 30
0.0
 11
3438.606705046526
 21
2875.447347284215
 31
0.0
  0
LINE
  5
87AC
330
18
100
AcDbEntity
  8
FINAS
100
AcDbLine
 10
3408.505390042187
 20
2866.91913146788
 30
0.0
 11
3414.553434175636
 21
2868.63264549972
 31
0.0
  0
LINE
  5
87AD
330
18
100
AcDbEntity
  8
FINAS
100
AcDbLine
 10
3384.452119171298
 20
2860.104429683385
 30
0.0
 11
3390.500163304746
 21
2861.817943715225
 31
0.0
  0
LINE
  5
87AE
330
18
100
AcDbEntity
  8
FINAS
100
AcDbLine
 10
3360.398848300408
 20
2853.289727898891
 30
0.0
 11
3366.446892433856
 21
2855.003241930731
 31
0.0
  0
LINE
  5
87AF
330
18
100
AcDbEntity
  8
FINAS
100
AcDbLine
 10
3336.345577429518
 20
2846.475026114396
 30
0.0
 11
3342.393621562966
 21
2848.188540146236
 31
0.0
  0
LINE
  5
87B0
330
18
100
AcDbEntity
  8
FINAS
100
AcDbLine
 10
3294.28707982119
 20
2834.559136577235
 30
0.0
 11
3277.414002616536
 21
2829.778706092194
 31
0.0
  0
ARC
  5
87B1
330
18
100
AcDbEntity
  8
FINAS
100
AcDbCircle
 10
3474.124308213687
 20
2859.874451813043
 30
0.0
 40
8.0
100
AcDbArc
 50
184.9999999999998
 51
270.0000000000007
  0
ARC
  5
87B2
330
18
100
AcDbEntity
  8
FINAS
100
AcDbCircle
 10
3457.771546715566
 20
2863.207959100435
 30
0.0
 40
8.0
100
AcDbArc
 50
5.000000000000477
 51
105.8183303931783
  0
LINE
  5
87B3
330
18
100
AcDbEntity
  8
FINAS
100
AcDbLine
 10
3507.983684317588
 20
2862.839547000169
 30
0.0
 11
3508.49018583339
 21
2891.856999406333
 31
0.0
  0
ARC
  5
87B4
330
18
100
AcDbEntity
  8
FINAS
100
AcDbCircle
 10
3491.947592713037
 20
2895.75652872526
 30
0.0
 40
14.0
100
AcDbArc
 50
285.8183303931836
 51
345.0008255482587
  0
LINE
  5
87B5
330
18
100
AcDbEntity
  8
FINAS
100
AcDbLine
 10
3483.118495297274
 20
2878.704059307844
 30
0.0
 11
3495.763825712354
 21
2882.286697037562
 31
0.0
  0
ARC
  5
87B6
330
18
100
AcDbEntity
  8
FINAS
100
AcDbCircle
 10
3479.302262297961
 20
2892.17389099553
 30
0.0
 40
14.0
100
AcDbArc
 50
250.2648444891634
 51
285.8183303931792
  0
ARC
  5
87B7
330
18
100
AcDbEntity
  8
FINAS
100
AcDbCircle
 10
3457.771546715566
 20
2863.207959100435
 30
0.0
 40
17.0
100
AcDbArc
 50
5.000000000000477
 51
40.13298165275549
  0
LINE
  5
87B8
330
18
100
AcDbEntity
  8
FINAS
100
AcDbLine
 10
3476.873301735741
 20
2860.874451813044
 30
0.0
 11
3505.983988927275
 21
2860.874451813044
 31
0.0
  0
LINE
  5
87B9
330
18
100
AcDbEntity
  8
FINAS
100
AcDbLine
 10
3474.706856583126
 20
2864.689606727145
 30
0.0
 11
3474.880912339557
 21
2862.700140327548
 31
0.0
  0
ARC
  5
87BA
330
18
100
AcDbEntity
  8
FINAS
100
AcDbCircle
 10
3461.297035560519
 20
2887.072703242877
 30
0.0
 40
14.0
100
AcDbArc
 50
313.4373225158371
 51
321.3718162971791
  0
ARC
  5
87BB
330
18
100
AcDbEntity
  8
FINAS
100
AcDbCircle
 10
3473.868398154922
 20
2877.026987770647
 30
0.0
 40
2.092096098053001
100
AcDbArc
 50
70.2648444891645
 51
141.3718162971816
  0
ARC
  5
87BC
330
18
100
AcDbEntity
  8
FINAS
100
AcDbCircle
 10
3472.298006061472
 20
2875.454672082773
 30
0.0
 40
2.0
100
AcDbArc
 50
133.4373225158385
 51
220.1329816527496
  0
ARC
  5
87BD
330
18
100
AcDbEntity
  8
FINAS
100
AcDbCircle
 10
3476.873301735741
 20
2862.874451813043
 30
0.0
 40
2.0
100
AcDbArc
 50
184.9999999999957
 51
269.9999999999998
  0
ARC
  5
87BE
330
18
100
AcDbEntity
  8
FINAS
100
AcDbCircle
 10
3505.983988927275
 20
2862.874451813043
 30
0.0
 40
2.0
100
AcDbArc
 50
269.9999999999992
 51
358.9999999999988
  0
LINE
  5
87BF
330
18
100
AcDbEntity
  8
FINAS
100
AcDbLine
 10
3507.490338138233
 20
2892.87445181277
 30
0.0
 11
3506.436536043919
 21
2892.87445181277
 31
0.0
  0
ARC
  5
87C2
330
18
100
AcDbEntity
  8
FINAS
100
AcDbCircle
 10
3506.436536043919
 20
2891.87445181277
 30
0.0
 40
1.0
100
AcDbArc
 50
90.0
 51
165.000825548267
  0
ARC
  5
87C3
330
18
100
AcDbEntity
  8
FINAS
100
AcDbCircle
 10
3507.490338138233
 20
2891.87445181277
 30
0.0
 40
1.0
100
AcDbArc
 50
358.9999999999997
 51
90.0
  0
LINE
  5
87D6
330
18
100
AcDbEntity
  8
FINAS
100
AcDbLine
 10
2468.105255903554
 20
2892.874451812771
 30
0.0
 11
2486.101904686589
 21
2892.87445181277
 31
0.0
  0
ARC
  5
87D7
330
18
100
AcDbEntity
  8
FINAS
100
AcDbCircle
 10
2486.101904686589
 20
2890.87445181277
 30
0.0
 40
2.0
100
AcDbArc
 50
359.0000000001546
 51
90.0
  0
LINE
  5
87D8
330
18
100
AcDbEntity
  8
FINAS
100
AcDbLine
 10
2488.101600076902
 20
2890.839546999901
 30
0.0
 11
2487.612858258992
 21
2862.839547000174
 31
0.0
  0
ARC
  5
87D9
330
18
100
AcDbEntity
  8
FINAS
100
AcDbCircle
 10
2485.613162868679
 20
2862.874451813043
 30
0.0
 40
1.999999999999932
100
AcDbArc
 50
270.0
 51
359.0000000001546
  0
LINE
  5
87DA
330
18
100
AcDbEntity
  8
FINAS
100
AcDbLine
 10
2485.613162868679
 20
2860.874451813043
 30
0.0
 11
2473.785857984186
 21
2860.874451813043
 31
0.0
  0
LINE
  5
87DF
330
18
100
AcDbEntity
  8
FINAS
100
AcDbLine
 10
2465.787076422934
 20
2844.014071064547
 30
0.0
 11
2460.650413207642
 21
2549.734832561272
 31
0.0
  0
ARC
  5
87E0
330
18
100
AcDbEntity
  8
FINAS
100
AcDbCircle
 10
2473.785857984186
 20
2843.874451813043
 30
0.0
 40
8.0
100
AcDbArc
 50
90.0
 51
178.9999999999625
  0
LINE
  5
87E1
330
18
100
AcDbEntity
  8
FINAS
100
AcDbLine
 10
2466.105560513241
 20
2890.909356625647
 30
0.0
 11
2465.598740354063
 21
2861.873649153773
 31
0.0
  0
ARC
  5
87E2
330
18
100
AcDbEntity
  8
FINAS
100
AcDbCircle
 10
2473.785857984186
 20
2843.874451813043
 30
0.0
 40
17.0
100
AcDbArc
 50
90.0
 51
109.0051900881172
  0
ARC
  5
87E3
330
18
100
AcDbEntity
  8
FINAS
100
AcDbCircle
 10
2468.105255903554
 20
2890.874451812771
 30
0.0
 40
2.0
100
AcDbArc
 50
89.99999999999801
 51
178.9999999999625
  0
ARC
  5
87E4
330
18
100
AcDbEntity
  8
FINAS
100
AcDbCircle
 10
2467.598435744376
 20
2861.838744340897
 30
0.0
 40
2.0
100
AcDbArc
 50
178.9999999999594
 51
289.005190088122
  0
ARC
  5
87E7
330
18
100
AcDbEntity
  8
FINAS
100
AcDbCircle
 10
2452.651631646391
 20
2549.874451812776
 30
0.0
 40
8.0
100
AcDbArc
 50
241.0449756281393
 51
358.9999999999627
  0
LINE
  5
87EF
330
18
100
AcDbEntity
  8
FINAS
100
AcDbLine
 10
2444.905664953976
 20
2543.874451812776
 30
0.0
 11
2431.57288494271
 21
2543.874451812775
 31
0.0
  0
ARC
  5
87F0
330
18
100
AcDbEntity
  8
FINAS
100
AcDbCircle
 10
2444.905664953976
 20
2535.874451812776
 30
0.0
 40
8.0
100
AcDbArc
 50
61.04497562813933
 51
90.0
  0
ARC
  5
87F1
330
18
100
AcDbEntity
  8
FINAS
100
AcDbCircle
 10
2431.57288494271
 20
2535.874451812775
 30
0.0
 40
8.0
100
AcDbArc
 50
90.0
 51
118.9550243718562
  0
ARC
  5
87F2
330
18
100
AcDbEntity
  8
FINAS
100
AcDbCircle
 10
2426.880707680239
 20
2591.874451812787
 30
0.0
 40
34.0
100
AcDbArc
 50
270.0
 51
309.751363295635
  0
LINE
  5
87F3
330
18
100
AcDbEntity
  8
FINAS
100
AcDbLine
 10
2420.65534537503
 20
2554.460238250413
 30
0.0
 11
2423.039512318979
 21
2552.076071306465
 31
0.0
  0
LINE
  5
87F4
330
18
100
AcDbEntity
  8
FINAS
100
AcDbLine
 10
2426.880707680239
 20
2557.874451812787
 30
0.0
 11
2422.069558937403
 21
2557.874451812787
 31
0.0
  0
ARC
  5
87F5
330
18
100
AcDbEntity
  8
FINAS
100
AcDbCircle
 10
2431.57288494271
 20
2535.874451812775
 30
0.0
 40
17.0
100
AcDbArc
 50
90.0
 51
112.0053138170719
  0
LINE
  5
87F6
330
18
100
AcDbEntity
  8
FINAS
100
AcDbLine
 10
2444.905664953975
 20
2552.874451812776
 30
0.0
 11
2431.57288494271
 21
2552.874451812775
 31
0.0
  0
ARC
  5
87F7
330
18
100
AcDbEntity
  8
FINAS
100
AcDbCircle
 10
2444.905664953976
 20
2535.874451812776
 30
0.0
 40
17.0
100
AcDbArc
 50
75.29835966195445
 51
90.0
  0
LINE
  5
87F8
330
18
100
AcDbEntity
  8
FINAS
100
AcDbLine
 10
2451.90086571288
 20
2564.161788786262
 30
0.0
 11
2451.727287441193
 21
2554.217496261777
 31
0.0
  0
ARC
  5
87F9
330
18
100
AcDbEntity
  8
FINAS
100
AcDbCircle
 10
2449.901170322567
 20
2564.196693599138
 30
0.0
 40
2.0
100
AcDbArc
 50
358.9999999999721
 51
129.7513632956418
  0
ARC
  5
87FA
330
18
100
AcDbEntity
  8
FINAS
100
AcDbCircle
 10
2422.069558937403
 20
2555.874451812787
 30
0.0
 40
2.0
100
AcDbArc
 50
89.99999999999969
 51
225.0000000000079
  0
ARC
  5
87FB
330
18
100
AcDbEntity
  8
FINAS
100
AcDbCircle
 10
2424.453725881352
 20
2553.490284868838
 30
0.0
 40
2.0
100
AcDbArc
 50
225.0
 51
292.0053138170681
  0
ARC
  5
87FC
330
18
100
AcDbEntity
  8
FINAS
100
AcDbCircle
 10
2449.727592050881
 20
2554.252401074653
 30
0.0
 40
2.0
100
AcDbArc
 50
255.2983596619597
 51
358.9999999999587
  0
LINE
  5
87FD
330
18
100
AcDbEntity
  8
FINAS
100
AcDbLine
 10
2136.20419782714
 20
2892.874451812771
 30
0.0
 11
2118.207549044104
 21
2892.87445181277
 31
0.0
  0
ARC
  5
87FE
330
18
100
AcDbEntity
  8
FINAS
100
AcDbCircle
 10
2118.207549044104
 20
2890.87445181277
 30
0.0
 40
2.0
100
AcDbArc
 50
90.0
 51
180.9999999998455
  0
LINE
  5
87FF
330
18
100
AcDbEntity
  8
FINAS
100
AcDbLine
 10
2116.207853653792
 20
2890.839546999901
 30
0.0
 11
2116.696595471702
 21
2862.839547000174
 31
0.0
  0
ARC
  5
8800
330
18
100
AcDbEntity
  8
FINAS
100
AcDbCircle
 10
2118.696290862015
 20
2862.874451813043
 30
0.0
 40
1.999999999999932
100
AcDbArc
 50
180.9999999998455
 51
270.0
  0
LINE
  5
8801
330
18
100
AcDbEntity
  8
FINAS
100
AcDbLine
 10
2118.696290862015
 20
2860.874451813043
 30
0.0
 11
2130.523595746508
 21
2860.874451813043
 31
0.0
  0
LINE
  5
8802
330
18
100
AcDbEntity
  8
FINAS
100
AcDbLine
 10
2151.657822084303
 20
2541.874451812776
 30
0.0
 11
2452.651631646391
 21
2541.874451812776
 31
0.0
  0
LINE
  5
8803
330
18
100
AcDbEntity
  8
FINAS
100
AcDbLine
 10
2159.403788776717
 20
2543.874451812776
 30
0.0
 11
2172.736568787983
 21
2543.874451812775
 31
0.0
  0
LINE
  5
8804
330
18
100
AcDbEntity
  8
FINAS
100
AcDbLine
 10
2159.403788776718
 20
2552.874451812776
 30
0.0
 11
2172.736568787984
 21
2552.874451812775
 31
0.0
  0
ARC
  5
8805
330
18
100
AcDbEntity
  8
FINAS
100
AcDbCircle
 10
2151.657822084303
 20
2549.874451812776
 30
0.0
 40
8.0
100
AcDbArc
 50
181.0000000000373
 51
298.9550243718607
  0
ARC
  5
8806
330
18
100
AcDbEntity
  8
FINAS
100
AcDbCircle
 10
2159.403788776717
 20
2535.874451812776
 30
0.0
 40
8.0
100
AcDbArc
 50
90.0
 51
118.9550243718607
  0
ARC
  5
8807
330
18
100
AcDbEntity
  8
FINAS
100
AcDbCircle
 10
2159.403788776717
 20
2535.874451812776
 30
0.0
 40
17.0
100
AcDbArc
 50
90.0
 51
104.7016403380455
  0
ARC
  5
8808
330
18
100
AcDbEntity
  8
FINAS
100
AcDbCircle
 10
2154.581861679813
 20
2554.252401074653
 30
0.0
 40
2.0
100
AcDbArc
 50
181.0000000000413
 51
284.7016403380404
  0
LINE
  5
8809
330
18
100
AcDbEntity
  8
FINAS
100
AcDbLine
 10
2115.154726865183
 20
2901.87445181277
 30
0.0
 11
2134.304492041102
 21
2901.874451812771
 31
0.0
  0
LINE
  5
880A
330
18
100
AcDbEntity
  8
FINAS
100
AcDbLine
 10
2147.151071177737
 20
2894.014071064274
 30
0.0
 11
2152.432553671545
 21
2591.438141651838
 31
0.0
  0
LINE
  5
880B
330
18
100
AcDbEntity
  8
FINAS
100
AcDbLine
 10
2138.203893217453
 20
2890.909356625647
 30
0.0
 11
2138.71071337663
 21
2861.873649153773
 31
0.0
  0
ARC
  5
880C
330
18
100
AcDbEntity
  8
FINAS
100
AcDbCircle
 10
2136.20419782714
 20
2890.874451812771
 30
0.0
 40
2.0
100
AcDbArc
 50
1.00000000003745
 51
90.00000000000198
  0
LINE
  5
880D
330
18
100
AcDbEntity
  8
FINAS
100
AcDbLine
 10
2138.522377307759
 20
2844.014071064547
 30
0.0
 11
2143.659040523052
 21
2549.734832561272
 31
0.0
  0
LINE
  5
880E
330
18
100
AcDbEntity
  8
FINAS
100
AcDbLine
 10
2152.408588017814
 20
2564.161788786262
 30
0.0
 11
2152.582166289501
 21
2554.217496261777
 31
0.0
  0
ARC
  5
880F
330
18
100
AcDbEntity
  8
FINAS
100
AcDbCircle
 10
2130.523595746508
 20
2843.874451813043
 30
0.0
 40
8.0
100
AcDbArc
 50
1.00000000003745
 51
90.0
  0
ARC
  5
8810
330
18
100
AcDbEntity
  8
FINAS
100
AcDbCircle
 10
2130.523595746508
 20
2843.874451813043
 30
0.0
 40
17.0
100
AcDbArc
 50
70.99480991188283
 51
90.0
  0
ARC
  5
8811
330
18
100
AcDbEntity
  8
FINAS
100
AcDbCircle
 10
2136.711017986317
 20
2861.838744340897
 30
0.0
 40
2.0
100
AcDbArc
 50
250.994809911878
 51
1.00000000004063
  0
LINE
  5
8812
330
18
100
AcDbEntity
  8
FINAS
100
AcDbLine
 10
2177.428746050454
 20
2557.874451812787
 30
0.0
 11
2182.239894793291
 21
2557.874451812787
 31
0.0
  0
LINE
  5
8813
330
18
100
AcDbEntity
  8
FINAS
100
AcDbLine
 10
2194.453098228887
 20
2552.531306062278
 30
0.0
 11
2186.139389729889
 21
2544.217597563282
 31
0.0
  0
LINE
  5
8814
330
18
100
AcDbEntity
  8
FINAS
100
AcDbLine
 10
2183.654108355664
 20
2554.460238250413
 30
0.0
 11
2181.269941411715
 21
2552.076071306465
 31
0.0
  0
ARC
  5
8815
330
18
100
AcDbEntity
  8
FINAS
100
AcDbCircle
 10
2182.239894793291
 20
2555.874451812787
 30
0.0
 40
2.0
100
AcDbArc
 50
314.9999999999922
 51
90.0000000000003
  0
LINE
  5
8816
330
18
100
AcDbEntity
  8
FINAS
100
AcDbLine
 10
2130.523595746508
 20
2851.874451813043
 30
0.0
 11
2115.748144056306
 21
2851.874451813043
 31
0.0
  0
ARC
  5
8817
330
18
100
AcDbEntity
  8
FINAS
100
AcDbCircle
 10
2115.748171564522
 20
2859.874423820479
 30
0.0
 40
7.999972007483393
100
AcDbArc
 50
180.9998029862247
 51
269.9998029862249
  0
LINE
  5
8818
330
18
100
AcDbEntity
  8
FINAS
100
AcDbLine
 10
2107.749417511487
 20
2859.734832561545
 30
0.0
 11
2107.155945303933
 21
2893.734832561272
 31
0.0
  0
ARC
  5
8819
330
18
100
AcDbEntity
  8
FINAS
100
AcDbCircle
 10
2115.154726865184
 20
2893.87445181277
 30
0.0
 40
8.000000000000547
100
AcDbArc
 50
90.00000000000651
 51
180.9999999999952
  0
ARC
  5
881A
330
18
100
AcDbEntity
  8
FINAS
100
AcDbCircle
 10
2139.152289616486
 20
2893.87445181277
 30
0.0
 40
8.0
100
AcDbArc
 50
1.000000000037399
 51
90.0
  0
ARC
  5
881B
330
18
100
AcDbEntity
  8
FINAS
100
AcDbCircle
 10
2177.428746050454
 20
2591.874451812787
 30
0.0
 40
25.0
100
AcDbArc
 50
181.0000000000375
 51
270.0
  0
ARC
  5
881C
330
18
100
AcDbEntity
  8
FINAS
100
AcDbCircle
 10
2177.428746050454
 20
2591.874451812787
 30
0.0
 40
34.0
100
AcDbArc
 50
230.248636704365
 51
270.0
  0
ARC
  5
881D
330
18
100
AcDbEntity
  8
FINAS
100
AcDbCircle
 10
2154.408283408127
 20
2564.196693599138
 30
0.0
 40
2.0
100
AcDbArc
 50
50.24863670435823
 51
181.0000000000278
  0
ARC
  5
881E
330
18
100
AcDbEntity
  8
FINAS
100
AcDbCircle
 10
2200.109952478379
 20
2546.874451812785
 30
0.0
 40
8.0
100
AcDbArc
 50
89.99999999999962
 51
134.9999999999978
  0
ARC
  5
881F
330
18
100
AcDbEntity
  8
FINAS
100
AcDbCircle
 10
2180.482535480397
 20
2549.874451812775
 30
0.0
 40
8.0
100
AcDbArc
 50
241.0449756281422
 51
314.9999999999903
  0
ARC
  5
8820
330
18
100
AcDbEntity
  8
FINAS
100
AcDbCircle
 10
2172.736568787983
 20
2535.874451812775
 30
0.0
 40
8.0
100
AcDbArc
 50
61.04497562814378
 51
90.0
  0
ARC
  5
8821
330
18
100
AcDbEntity
  8
FINAS
100
AcDbCircle
 10
2172.736568787983
 20
2535.874451812775
 30
0.0
 40
17.0
100
AcDbArc
 50
67.99468618292805
 51
90.0
  0
ARC
  5
8822
330
18
100
AcDbEntity
  8
FINAS
100
AcDbCircle
 10
2179.855727849341
 20
2553.490284868838
 30
0.0
 40
2.0
100
AcDbArc
 50
247.9946861829319
 51
315.0
  0
LINE
  5
8823
330
18
100
AcDbEntity
  8
FINAS
100
AcDbLine
 10
2177.428746050454
 20
2566.874451812787
 30
0.0
 11
2263.955218283638
 21
2566.874451812787
 31
0.0
  0
LINE
  5
8824
330
18
100
AcDbEntity
  8
FINAS
100
AcDbLine
 10
2262.746102836561
 20
2554.874451812786
 30
0.0
 11
2200.109952478379
 21
2554.874451812785
 31
0.0
  0
HATCH
  5
887C
330
18
100
AcDbEntity
  8
FINAS
100
AcDbHatch
 10
0.0
 20
0.0
 30
0.0
210
0.0
220
0.0
230
1.0
  2
SOLID
 70
     1
 71
     0
 91
        3
 92
        7
 72
     1
 73
     1
 93
       29
 10
2496.560035739122
 20
2859.734805057519
 42
0.0
 10
2497.153508426761
 20
2893.734832561272
 42
0.4193348017583455
 10
2489.15472686551
 20
2901.87445181277
 42
0.0
 10
2470.004961689592
 20
2901.874451812771
 42
0.0
 10
2465.157164114208
 20
2901.874451812771
 42
0.4091108014275191
 10
2457.158382552957
 20
2894.014071064274
 42
0.0
 10
2451.876900059149
 20
2591.438141651838
 42
-0.409110801427519
 10
2426.880707680239
 20
2566.874451812787
 42
0.0
 10
2340.354235447055
 20
2566.874451812787
 42
0.2102297862088043
 10
2336.66846474605
 20
2565.253074955373
 42
0.0
 10
2328.468956164342
 20
2556.308156502596
 42
0.1876437527927854
 10
2327.154726865347
 20
2552.929533360011
 42
0.0
 10
2327.154726865347
 20
2541.874451812776
 42
0.0
 10
2336.154726865347
 20
2541.874451812776
 42
0.0
 10
2336.154726865347
 20
2549.42868014502
 42
-0.1876437527927435
 10
2337.468956164341
 20
2552.807303287605
 42
0.0
 10
2337.877580193128
 20
2553.253074955372
 42
-0.2102297862087464
 10
2341.563350894132
 20
2554.874451812786
 42
0.0
 10
2404.199501252314
 20
2554.874451812785
 42
-0.1989123673796292
 10
2409.856355501806
 20
2552.531306062278
 42
0.0
 10
2418.170064000805
 20
2544.217597563282
 42
0.3343771204115371
 10
2427.699901596503
 20
2542.874451812775
 42
-0.1270166537925852
 10
2431.57288494271
 20
2543.874451812775
 42
0.0
 10
2444.905664953976
 20
2543.874451812776
 42
-0.1270166537925867
 10
2448.778648300184
 20
2542.874451812776
 42
0.5655137465261927
 10
2460.650413207642
 20
2549.734832561272
 42
0.0
 10
2465.787076422934
 20
2844.014071064547
 42
-0.409110801427519
 10
2473.785857984186
 20
2851.874451813043
 42
0.0
 10
2488.561309674387
 20
2851.874451813043
 42
0.409109797913136
 97
        0
 92
       22
 72
     1
 73
     1
 93
        9
 10
2465.598740354063
 20
2861.873649153773
 42
0.0
 10
2466.105560513241
 20
2890.909356625647
 42
-0.409110801427529
 10
2468.105255903554
 20
2892.874451812771
 42
0.0
 10
2486.101904686589
 20
2892.87445181277
 42
-0.4193348017575938
 10
2488.101600076902
 20
2890.839546999901
 42
0.0
 10
2487.612858258992
 20
2862.839547000174
 42
-0.409110801428497
 10
2485.613162868679
 20
2860.874451813043
 42
0.0
 10
2473.785857984186
 20
2860.874451813043
 42
0.0831163946822155
 10
2468.249743348567
 20
2859.94776618007
 42
-0.520595833772262
 97
        0
 92
       22
 72
     1
 73
     1
 93
       11
 10
2451.90086571288
 20
2564.161788786262
 42
0.0
 10
2451.727287441193
 20
2554.217496261777
 42
-0.4861220850157525
 10
2449.220020777523
 20
2552.317880099719
 42
0.0642361413805017
 10
2444.905664953975
 20
2552.874451812776
 42
0.0
 10
2431.57288494271
 20
2552.874451812775
 42
0.0963124491206657
 10
2425.203111045706
 20
2551.63598665241
 42
-0.3009911253992738
 10
2423.039512318979
 20
2552.076071306465
 42
0.0
 10
2420.65534537503
 20
2554.460238250413
 42
-0.668178637919351
 10
2422.069558937403
 20
2557.874451812787
 42
0.0
 10
2426.880707680239
 20
2557.874451812787
 42
0.1752085816331073
 10
2448.622255731326
 20
2565.73434683323
 42
-0.6416889479198176
 97
        0
 75
     0
 76
     1
 47
1.191246625890002
 98
        3
 10
2462.170553271947
 20
2852.256195487843
 10
2462.170553271947
 20
2852.256195487843
 10
2462.170553271947
 20
2852.256195487843
  0
HATCH
  5
8885
330
18
100
AcDbEntity
  8
FINAS
100
AcDbHatch
 10
0.0
 20
0.0
 30
0.0
210
0.0
220
0.0
230
1.0
  2
SOLID
 70
     1
 71
     0
 91
        3
 92
        7
 72
     1
 73
     1
 93
       29
 10
2107.749417991572
 20
2859.734805057519
 42
0.0
 10
2107.155945303933
 20
2893.734832561272
 42
-0.4193348017583455
 10
2115.154726865184
 20
2901.87445181277
 42
0.0
 10
2134.304492041102
 20
2901.874451812771
 42
0.0
 10
2139.152289616486
 20
2901.874451812771
 42
-0.4091108014275191
 10
2147.151071177737
 20
2894.014071064274
 42
0.0
 10
2152.432553671545
 20
2591.438141651838
 42
0.409110801427519
 10
2177.428746050454
 20
2566.874451812787
 42
0.0
 10
2263.955218283638
 20
2566.874451812787
 42
-0.2102297862088043
 10
2267.640988984643
 20
2565.253074955373
 42
0.0
 10
2275.840497566351
 20
2556.308156502596
 42
-0.1876437527927854
 10
2277.154726865347
 20
2552.929533360011
 42
0.0
 10
2277.154726865347
 20
2541.874451812776
 42
0.0
 10
2268.154726865347
 20
2541.874451812776
 42
0.0
 10
2268.154726865347
 20
2549.42868014502
 42
0.1876437527927435
 10
2266.840497566352
 20
2552.807303287605
 42
0.0
 10
2266.431873537566
 20
2553.253074955372
 42
0.2102297862087464
 10
2262.746102836562
 20
2554.874451812786
 42
0.0
 10
2200.109952478379
 20
2554.874451812785
 42
0.1989123673796292
 10
2194.453098228887
 20
2552.531306062278
 42
0.0
 10
2186.139389729889
 20
2544.217597563282
 42
-0.3343771204115371
 10
2176.609552134191
 20
2542.874451812775
 42
0.1270166537925852
 10
2172.736568787983
 20
2543.874451812775
 42
0.0
 10
2159.403788776717
 20
2543.874451812776
 42
0.1270166537925867
 10
2155.53080543051
 20
2542.874451812776
 42
-0.5655137465261927
 10
2143.659040523052
 20
2549.734832561272
 42
0.0
 10
2138.522377307759
 20
2844.014071064547
 42
0.409110801427519
 10
2130.523595746508
 20
2851.874451813043
 42
0.0
 10
2115.748144056306
 20
2851.874451813043
 42
-0.409109797913136
 97
        0
 92
       22
 72
     1
 73
     1
 93
        9
 10
2138.71071337663
 20
2861.873649153773
 42
0.0
 10
2138.203893217453
 20
2890.909356625647
 42
0.409110801427529
 10
2136.20419782714
 20
2892.874451812771
 42
0.0
 10
2118.207549044104
 20
2892.87445181277
 42
0.4193348017575938
 10
2116.207853653792
 20
2890.839546999901
 42
0.0
 10
2116.696595471702
 20
2862.839547000174
 42
0.409110801428497
 10
2118.696290862015
 20
2860.874451813043
 42
0.0
 10
2130.523595746508
 20
2860.874451813043
 42
-0.0831163946822155
 10
2136.059710382127
 20
2859.94776618007
 42
0.520595833772262
 97
        0
 92
       22
 72
     1
 73
     1
 93
       11
 10
2152.408588017814
 20
2564.161788786262
 42
0.0
 10
2152.582166289501
 20
2554.217496261777
 42
0.4861220850157525
 10
2155.089432953171
 20
2552.317880099719
 42
-0.0642361413805017
 10
2159.403788776718
 20
2552.874451812776
 42
0.0
 10
2172.736568787984
 20
2552.874451812775
 42
-0.0963124491206657
 10
2179.106342684987
 20
2551.63598665241
 42
0.3009911253992738
 10
2181.269941411715
 20
2552.076071306465
 42
0.0
 10
2183.654108355664
 20
2554.460238250413
 42
0.668178637919351
 10
2182.239894793291
 20
2557.874451812787
 42
0.0
 10
2177.428746050454
 20
2557.874451812787
 42
-0.1752085816331073
 10
2155.687197999367
 20
2565.73434683323
 42
0.6416889479198176
 97
        0
 75
     0
 76
     1
 47
1.191246625890002
 98
        3
 10
2142.138900458746
 20
2852.256195487843
 10
2142.138900458746
 20
2852.256195487843
 10
2142.138900458746
 20
2852.256195487843
  0
HATCH
  5
896D
330
18
100
AcDbEntity
  8
FINAS
100
AcDbHatch
 10
0.0
 20
0.0
 30
0.0
210
0.0
220
0.0
230
1.0
  2
SOLID
 70
     1
 71
     0
 91
        3
 92
        7
 72
     1
 73
     1
 93
       65
 10
3275.513446738103
 20
2815.703624167684
 42
-0.319004647451843
 10
3279.867295258954
 20
2821.119528578673
 42
0.0
 10
3455.590842144527
 20
2870.90500577912
 42
-0.4706619766650575
 10
3465.7411043003
 20
2863.905205042416
 42
0.0
 10
3466.154750628953
 20
2859.177205871062
 42
0.3888787318529774
 10
3474.124308213687
 20
2851.874451813043
 42
0.0
 10
3508.932135733054
 20
2851.874451813043
 42
0.4091097979131194
 10
3516.930861797789
 20
2859.734805057519
 42
0.0
 10
3517.524334485428
 20
2893.734832561272
 42
0.419334801758362
 10
3509.525552924176
 20
2901.87445181277
 42
0.0
 10
3504.810632264227
 20
2901.87445181277
 42
0.3722729047487028
 10
3496.894915617341
 20
2895.032652989687
 42
-0.2955368673606926
 10
3493.310533069936
 20
2890.945874551082
 42
0.0
 10
3480.665202654857
 20
2887.363236821365
 42
-0.1563878946399282
 10
3477.613897988573
 20
2887.467573331073
 42
0.3206171792900542
 10
3465.203103023018
 20
2883.951383493411
 42
-0.1563878946398954
 10
3462.659975917415
 20
2882.26204906871
 42
0.0
 10
3456.611931783966
 20
2880.54853503687
 42
-0.1563878946399282
 10
3453.560627117683
 20
2880.652871546578
 42
0.3206171792900542
 10
3441.149832152129
 20
2877.136681708917
 42
-0.1563878946398954
 10
3438.606705046526
 20
2875.447347284215
 42
0.0
 10
3432.558660913077
 20
2873.733833252375
 42
-0.1563878946399526
 10
3429.507356246793
 20
2873.838169762083
 42
0.3206171792900542
 10
3417.096561281239
 20
2870.321979924422
 42
-0.1563878946398954
 10
3414.553434175636
 20
2868.63264549972
 42
0.0
 10
3408.505390042187
 20
2866.91913146788
 42
-0.1563878946399526
 10
3405.454085375904
 20
2867.023467977588
 42
0.3206171792900542
 10
3393.043290410349
 20
2863.507278139927
 42
-0.1563878946398954
 10
3390.500163304746
 20
2861.817943715225
 42
0.0
 10
3384.452119171298
 20
2860.104429683385
 42
-0.1563878946399526
 10
3381.400814505014
 20
2860.208766193093
 42
0.3206171792900542
 10
3368.990019539459
 20
2856.692576355432
 42
-0.1563878946399023
 10
3366.446892433856
 20
2855.003241930731
 42
0.0
 10
3360.398848300408
 20
2853.289727898891
 42
-0.1563878946399265
 10
3357.347543634124
 20
2853.394064408599
 42
0.3206171792900542
 10
3344.936748668569
 20
2849.877874570937
 42
-0.1563878946398888
 10
3342.393621562966
 20
2848.188540146236
 42
0.0
 10
3336.345577429518
 20
2846.475026114396
 42
-0.1563878946399265
 10
3333.294272763235
 20
2846.579362624103
 42
0.3206171792900542
 10
3320.88347779768
 20
2843.063172786442
 42
-0.1563878946398752
 10
3318.340350692076
 20
2841.373838361742
 42
0.0
 10
3312.292306558628
 20
2839.660324329902
 42
-0.1563878946399257
 10
3309.241001892345
 20
2839.764660839609
 42
0.3206171792900542
 10
3296.83020692679
 20
2836.248471001947
 42
-0.1563878946402542
 10
3294.287079821187
 20
2834.559136577234
 42
0.0
 10
3277.414002616536
 20
2829.778706092194
 42
0.319004647451843
 10
3266.52938131441
 20
2816.23894506472
 42
0.0
 10
3253.071885225881
 20
2590.387449321023
 42
-0.3968874579888341
 10
3228.116147937844
 20
2566.87445181279
 42
0.0
 10
3080.36261290951
 20
2566.874451812789
 42
0.2102297862088041
 10
3076.676842208505
 20
2565.253074955375
 42
0.0
 10
3068.477333626797
 20
2556.308156502598
 42
0.1876437527928089
 10
3067.163104327801
 20
2552.929533360012
 42
0.0
 10
3067.163104327802
 20
2541.874451812786
 42
0.0
 10
3076.163104327802
 20
2541.874451812786
 42
0.0
 10
3076.163104327801
 20
2549.428680145022
 42
-0.18764375279272
 10
3077.477333626796
 20
2552.807303287607
 42
0.0
 10
3077.885957655583
 20
2553.253074955375
 42
-0.2102297862087462
 10
3081.571728356586
 20
2554.874451812788
 42
0.0
 10
3215.356170661373
 20
2554.87445181279
 42
-0.1989123673796492
 10
3221.013024910865
 20
2552.531306062283
 42
0.0
 10
3229.326733409844
 20
2544.217597563305
 42
0.198912367379658
 10
3234.983587659336
 20
2541.874451812797
 42
0.0
 10
3251.659667753125
 20
2541.874451812797
 42
0.3968874579888353
 10
3259.645503685297
 20
2549.398611015432
 42
0.0
 97
        0
 92
       22
 72
     1
 73
     1
 93
        8
 10
3251.424597852351
 20
2562.741718288747
 42
0.0
 10
3250.829562579375
 20
2552.755491613456
 42
-0.3968874579888316
 10
3248.833103596331
 20
2550.874451812797
 42
0.0
 10
3236.226228346455
 20
2550.874451812797
 42
-0.198912367379658
 10
3234.812014784083
 20
2551.460238250424
 42
0.0
 10
3231.491924960482
 20
2554.780328074024
 42
-0.6209558286886564
 10
3232.640027934799
 20
2558.176758868418
 42
0.1256771800748134
 10
3248.244139373116
 20
2564.472554783904
 42
-0.6352867474397646
 97
        0
 92
       22
 72
     1
 73
     1
 93
       15
 10
3474.880912339557
 20
2862.700140327548
 42
0.0
 10
3474.706856583126
 20
2864.689606727145
 42
0.1545087618813444
 10
3470.768905077692
 20
2874.165544400422
 42
-0.3974210565079075
 10
3470.922884748853
 20
2876.906925977786
 42
0.0346345989893196
 10
3472.234024455517
 20
2878.333007944373
 42
-0.3206171792900505
 10
3474.574842231675
 20
2878.996201535049
 42
0.1563878946400684
 10
3483.118495297275
 20
2878.704059307844
 42
0.0
 10
3495.763825712354
 20
2882.286697037562
 42
0.2641296872668239
 10
3505.470606488527
 20
2892.13325694027
 42
-0.3394582760731456
 10
3506.436536043919
 20
2892.87445181277
 42
0.0
 10
3507.490338138233
 20
2892.87445181277
 42
-0.4193348017583884
 10
3508.49018583339
 20
2891.856999406333
 42
0.0
 10
3507.983684317588
 20
2862.839547000169
 42
-0.4091108014277076
 10
3505.983988927275
 20
2860.874451813044
 42
0.0
 10
3476.873301735741
 20
2860.874451813044
 42
-0.3888787318530102
 97
        0
 75
     0
 76
     1
 47
0.5813793091090515
 98
        3
 10
3267.95006336148
 20
2751.389047999449
 10
3267.95006336148
 20
2751.389047999449
 10
3267.95006336148
 20
2751.389047999449
  0
HATCH
  5
8992
330
18
100
AcDbEntity
  8
FINAS
100
AcDbHatch
 10
0.0
 20
0.0
 30
0.0
210
0.0
220
0.0
230
1.0
  2
SOLID
 70
     1
 71
     0
 91
        2
 92
        7
 72
     1
 73
     1
 93
       23
 10
3007.649366447097
 20
2565.253074955375
 42
0.2102297862087128
 10
3003.963595746093
 20
2566.874451812789
 42
0.0
 10
2982.43712351207
 20
2566.874451812788
 42
-0.4091108014284938
 10
2957.440931133159
 20
2591.438141651924
 42
0.0
 10
2952.159448640364
 20
2894.014071064246
 42
0.4091108014284972
 10
2944.160667079112
 20
2901.87445181277
 42
0.0
 10
2920.163104327814
 20
2901.87445181277
 42
0.4191383622805218
 10
2912.164231245484
 20
2893.740178163903
 42
0.0001670745627073
 10
2912.16432276656
 20
2893.734832561446
 42
0.0
 10
2918.168865100945
 20
2549.734832561294
 42
0.4091108014275012
 10
2926.167646662196
 20
2541.874451812797
 42
0.0
 10
2975.990989106068
 20
2541.874451812797
 42
0.1989123673792786
 10
2981.64784335556
 20
2544.217597563277
 42
0.0
 10
2989.961551854565
 20
2552.53130606228
 42
-0.1989123673796483
 10
2995.618406104057
 20
2554.874451812788
 42
0.0
 10
3002.754480299018
 20
2554.874451812788
 42
-0.2102297862087016
 10
3006.440251000022
 20
2553.253074955375
 42
0.0
 10
3006.848875028806
 20
2552.807303287612
 42
-0.1876437527928518
 10
3008.163104327801
 20
2549.428680145026
 42
0.0
 10
3008.163104327801
 20
2541.874451812792
 42
0.0
 10
3017.163104327801
 20
2541.874451812791
 42
0.0
 10
3017.163104327801
 20
2552.929533360016
 42
0.1876437527928456
 10
3015.848875028805
 20
2556.308156502603
 42
0.0
 97
        0
 92
       22
 72
     1
 73
     1
 93
       11
 10
2979.434535654435
 20
2554.732211923508
 42
0.0
 10
2976.162561981322
 20
2551.460238250395
 42
-0.1989123673796679
 10
2974.74834841895
 20
2550.874451812795
 42
0.0
 10
2929.115738451551
 20
2550.874451812797
 42
-0.4091108014284968
 10
2927.116043061238
 20
2552.839546999928
 42
0.0
 10
2921.21623111641
 20
2890.839546999901
 42
-0.419334801757594
 10
2923.215926506723
 20
2892.87445181277
 42
0.0
 10
2941.212575289757
 20
2892.87445181277
 42
-0.4091108014284968
 10
2943.21227068007
 20
2890.909356625639
 42
0.0
 10
2948.442301876751
 20
2591.281069994012
 42
0.3736493932271197
 10
2978.265699948729
 20
2558.131315837376
 42
-0.6245823344291574
 97
        0
 75
     0
 76
     1
 47
0.5813793091090515
 98
        2
 10
2992.272310748547
 20
2558.371109016738
 10
2992.272310748547
 20
2558.371109016738
  0
ARC
  5
8A23
330
18
100
AcDbEntity
  8
0
100
AcDbCircle
 10
3507.525552924177
 20
2060.403480897241
 30
0.0
 40
10.0
100
AcDbArc
 50
0.0
 51
90.0
  0
ARC
  5
8A2E
330
18
100
AcDbEntity
  8
0
100
AcDbCircle
 10
3507.525552924177
 20
1690.403480896913
 30
0.0
 40
10.0
100
AcDbArc
 50
270.0
 51
359.9999999999999
  0
ARC
  5
8A2F
330
18
100
AcDbEntity
  8
0
100
AcDbCircle
 10
3487.525552924177
 20
1730.403480896913
 30
0.0
 40
10.0
100
AcDbArc
 50
270.0
 51
359.9999999999999
  0
ARC
  5
8A31
330
18
100
AcDbEntity
  8
0
100
AcDbCircle
 10
3487.525552924177
 20
2020.403480897241
 30
0.0
 40
10.0
100
AcDbArc
 50
359.9999999999999
 51
89.99999999999992
  0
LINE
  5
8A33
330
18
100
AcDbEntity
  8
FINAS
100
AcDbLine
 10
3270.08922701493
 20
2018.875420318776
 30
0.0
 11
3485.174916320465
 21
2026.421752263699
 31
0.0
  0
ARC
  5
8A38
330
18
100
AcDbEntity
  8
FINAS
100
AcDbCircle
 10
3485.525552924177
 20
2016.42790145572
 30
0.0
 40
10.0
100
AcDbArc
 50
359.9999999999999
 51
92.00941164570314
  0
LINE
  5
8A3A
330
18
100
AcDbEntity
  8
FINAS
100
AcDbLine
 10
3270.08922701493
 20
1731.931541475378
 30
0.0
 11
3485.174916320466
 21
1724.385209530455
 31
0.0
  0
ARC
  5
8A3B
330
18
100
AcDbEntity
  8
FINAS
100
AcDbCircle
 10
3485.525552924177
 20
1734.379060338434
 30
0.0
 40
10.0
100
AcDbArc
 50
267.9905883542971
 51
0.0000000000000891
  0
LINE
  5
8A99
330
18
100
AcDbEntity
  8
tampon_distr._doc.
 62
   160
100
AcDbLine
 10
2255.352870550678
 20
1405.223591992525
 30
0.0
 11
3425.352870550678
 21
1405.223591992525
 31
0.0
  0
LINE
  5
8A9A
330
18
100
AcDbEntity
  8
tampon_distr._doc.
 62
   160
100
AcDbLine
 10
2255.352870550678
 20
1330.223591992525
 30
0.0
 11
3425.352870550678
 21
1330.223591992525
 31
0.0
  0
TEXT
  5
8A9B
330
18
100
AcDbEntity
  8
tampon_distr._doc.
 62
   160
100
AcDbText
 10
2546.846162478296
 20
1420.563952160659
 30
0.0
 40
51.09471091417503
  1
Marketing
 41
0.9
  7
MANO
100
AcDbText
  0
MTEXT
  5
8A9C
102
{ACAD_XDICTIONARY
360
8E3C
102
}
330
18
100
AcDbEntity
  8
tampon_distr._doc.
 62
   160
100
AcDbMText
 10
2489.080133635964
 20
1611.463204561939
 30
0.0
 40
30.0
 41
900.3002079206556
 71
     1
 72
     5
  1
DISTRIBUCI\U+00D3N DE DOCUMENTOS
  7
Estilo1
 73
     1
 44
1.0
1001
ACAD
1000
MTEXTBEGIN
1070
    73
1070
     1
1070
    44
1040
1.0
1070
    74
1070
     0
1000
MTEXTEND
  0
LINE
  5
8A9D
330
18
100
AcDbEntity
  8
tampon_distr._doc.
 62
   160
100
AcDbLine
 10
2255.352870550678
 20
1630.223591992525
 30
0.0
 11
3425.352870550678
 21
1630.223591992525
 31
0.0
  0
LINE
  5
8A9E
330
18
100
AcDbEntity
  8
tampon_distr._doc.
 62
   160
100
AcDbLine
 10
2255.352870550678
 20
1555.223591992525
 30
0.0
 11
3425.352870550678
 21
1555.223591992525
 31
0.0
  0
LINE
  5
8A9F
330
18
100
AcDbEntity
  8
tampon_distr._doc.
 62
   160
100
AcDbLine
 10
2255.352870550678
 20
1480.223591992525
 30
0.0
 11
3425.352870550678
 21
1480.223591992525
 31
0.0
  0
TEXT
  5
8AA0
330
18
100
AcDbEntity
  8
tampon_distr._doc.
 62
   160
100
AcDbText
 10
2455.735673884947
 20
1505.916454548773
 30
0.0
 40
22.0
  1
REV.
  7
Estilo1
100
AcDbText
  0
TEXT
  5
8AA1
330
18
100
AcDbEntity
  8
tampon_distr._doc.
 62
   160
100
AcDbText
 10
2670.622140126289
 20
1505.916454548773
 30
0.0
 40
22.0
  1
DESTINO
  7
Estilo1
100
AcDbText
  0
LINE
  5
8AA2
330
18
100
AcDbEntity
  8
tampon_distr._doc.
 62
   160
100
AcDbLine
 10
2255.352870550678
 20
1255.223591992525
 30
0.0
 11
3425.352870550678
 21
1255.223591992525
 31
0.0
  0
LINE
  5
8AA3
330
18
100
AcDbEntity
  8
tampon_distr._doc.
 62
   160
100
AcDbLine
 10
2255.352870550678
 20
1180.223591992525
 30
0.0
 11
3425.352870550678
 21
1180.223591992525
 31
0.0
  0
LINE
  5
8AA4
330
18
100
AcDbEntity
  8
tampon_distr._doc.
 62
   160
100
AcDbLine
 10
2255.352870550678
 20
1105.223591992525
 30
0.0
 11
3425.352870550678
 21
1105.223591992525
 31
0.0
  0
LINE
  5
8AA5
330
18
100
AcDbEntity
  8
tampon_distr._doc.
 62
   160
100
AcDbLine
 10
2535.352870550678
 20
1105.223591992525
 30
0.0
 11
2535.352870550678
 21
1555.223591992525
 31
0.0
  0
LINE
  5
8AA6
330
18
100
AcDbEntity
  8
tampon_distr._doc.
 62
   160
100
AcDbLine
 10
2445.352870550678
 20
1105.223591992525
 30
0.0
 11
2445.352870550678
 21
1555.223591992525
 31
0.0
  0
LINE
  5
8AA7
330
18
100
AcDbEntity
  8
tampon_distr._doc.
 62
   160
100
AcDbLine
 10
2255.352870550678
 20
1105.223591992525
 30
0.0
 11
2255.352870550678
 21
1630.223591992525
 31
0.0
  0
TEXT
  5
8AAD
330
18
100
AcDbEntity
  8
tampon_distr._doc.
 62
   160
100
AcDbText
 10
2264.931291386756
 20
1505.916454548773
 30
0.0
 40
22.0
  1
DOCUMENTO
  7
Estilo1
100
AcDbText
  0
TEXT
  5
8AAE
330
18
100
AcDbEntity
  8
tampon_distr._doc.
 62
   160
100
AcDbText
 10
2971.870058362165
 20
1420.563952160659
 30
0.0
 40
45.0
  1
20.09.07
 41
0.6
  7
MANO
100
AcDbText
  0
LINE
  5
8AAF
330
18
100
AcDbEntity
  8
tampon_distr._doc.
 62
   160
100
AcDbLine
 10
2968.123230716674
 20
1105.223591992525
 30
0.0
 11
2968.123230716674
 21
1555.223591992525
 31
0.0
  0
LINE
  5
8AB0
330
18
100
AcDbEntity
  8
tampon_distr._doc.
 62
   160
100
AcDbLine
 10
3280.352870550678
 20
1555.223591992525
 30
0.0
 11
3280.352870550678
 21
1105.223591992525
 31
0.0
  0
LINE
  5
8AB1
330
18
100
AcDbEntity
  8
tampon_distr._doc.
 62
   160
100
AcDbLine
 10
3425.352870550678
 20
1105.223591992525
 30
0.0
 11
3425.352870550678
 21
1630.223591992525
 31
0.0
  0
LINE
  5
8AB2
330
18
100
AcDbEntity
  8
tampon_distr._doc.
 62
   160
100
AcDbLine
 10
3124.238050633676
 20
1105.223591992525
 30
0.0
 11
3124.238050633676
 21
1555.223591992525
 31
0.0
  0
TEXT
  5
8AB5
330
18
100
AcDbEntity
  8
tampon_distr._doc.
 62
   160
100
AcDbText
 10
2995.724056175987
 20
1520.730029976361
 30
0.0
 40
22.0
  1
FECHA
  7
Estilo1
100
AcDbText
  0
TEXT
  5
8AB6
330
18
100
AcDbEntity
  8
tampon_distr._doc.
 62
   160
100
AcDbText
 10
2971.593498489774
 20
1489.042737078222
 30
0.0
 40
22.0
  1
ENTREGA
  7
Estilo1
100
AcDbText
  0
TEXT
  5
8AB7
330
18
100
AcDbEntity
  8
tampon_distr._doc.
 62
   160
100
AcDbText
 10
3156.56218610231
 20
1489.042737078222
 30
0.0
 40
22.0
  1
VIGOR
  7
Estilo1
100
AcDbText
  0
TEXT
  5
8AB8
330
18
100
AcDbEntity
  8
tampon_distr._doc.
 62
   160
100
AcDbText
 10
3151.838876092998
 20
1520.730029976361
 30
0.0
 40
22.0
  1
FECHA
  7
Estilo1
100
AcDbText
  0
TEXT
  5
8AB9
330
18
100
AcDbEntity
  8
tampon_distr._doc.
 62
   160
100
AcDbText
 10
3293.051908795178
 20
1505.916454548773
 30
0.0
 40
22.0
  1
RECIBI
  7
Estilo1
100
AcDbText
  0
ENDSEC
  0
SECTION
  2
OBJECTS
  0
DICTIONARY
  5
C
330
0
100
AcDbDictionary
281
     1
  3
ACAD_COLOR
350
8631
  3
ACAD_GROUP
350
D
  3
ACAD_LAYOUT
350
8634
  3
ACAD_MATERIAL
350
8630
  3
ACAD_MLINESTYLE
350
E
  3
ACAD_PLOTSETTINGS
350
8635
  3
ACAD_PLOTSTYLENAME
350
862E
  3
ACAD_TABLESTYLE
350
8632
  3
ACAD_VISUALSTYLE
350
8E1D
  3
ACDBVARIABLEDICTIONARY
350
7EC4
  3
DWGPROPS
350
8E35
  0
DICTIONARY
  5
8A6F
330
2
100
AcDbDictionary
280
     1
281
     1
  3
ACAD_LAYERFILTERS
360
8E0C
  3
ACAD_LAYERSTATES
360
8A70
  3
ACLYDICTIONARY
360
8E0B
  0
DICTIONARY
  5
8654
330
18
100
AcDbDictionary
280
     1
281
     1
  3
ACAD_SORTENTS
360
8655
  0
DICTIONARY
  5
8E3C
330
8A9C
100
AcDbDictionary
280
     1
281
     1
  3
ACAD_MTEXT_RT
360
8E3D
  0
DICTIONARY
  5
8631
102
{ACAD_REACTORS
330
C
102
}
330
C
100
AcDbDictionary
281
     1
  0
DICTIONARY
  5
D
102
{ACAD_REACTORS
330
C
102
}
330
C
100
AcDbDictionary
281
     1
  0
DICTIONARY
  5
8634
102
{ACAD_REACTORS
330
C
102
}
330
C
100
AcDbDictionary
281
     1
  3
Model
350
8636
  3
Presentación1
350
8637
  0
DICTIONARY
  5
8630
102
{ACAD_REACTORS
330
C
102
}
330
C
100
AcDbDictionary
281
     1
  3
ByBlock
350
8E1B
  3
ByLayer
350
8E1A
  3
Global
350
8E1C
  0
DICTIONARY
  5
E
102
{ACAD_REACTORS
330
C
102
}
330
C
100
AcDbDictionary
281
     1
  3
STANDARD
350
1B
  0
DICTIONARY
  5
8635
102
{ACAD_REACTORS
330
C
102
}
330
C
100
AcDbDictionary
281
     1
  0
ACDBDICTIONARYWDFLT
  5
862E
102
{ACAD_REACTORS
330
C
102
}
330
C
100
AcDbDictionary
281
     1
  3
Normal
350
862F
100
AcDbDictionaryWithDefault
340
862F
  0
DICTIONARY
  5
8632
102
{ACAD_REACTORS
330
C
102
}
330
C
100
AcDbDictionary
281
     1
  3
Standard
350
8633
  0
DICTIONARY
  5
8E1D
102
{ACAD_REACTORS
330
C
102
}
330
C
100
AcDbDictionary
281
     1
  3
2dWireframe
350
8E23
  3
3D Hidden
350
8E25
  3
3dWireframe
350
8E24
  3
Basic
350
8E22
  3
Brighten
350
8E29
  3
ColorChange
350
8E2D
  3
Conceptual
350
8E26
  3
Dim
350
8E28
  3
Facepattern
350
8E2C
  3
Flat
350
8E1E
  3
FlatWithEdges
350
8E1F
  3
Gouraud
350
8E20
  3
GouraudWithEdges
350
8E21
  3
Linepattern
350
8E2B
  3
Realistic
350
8E27
  3
Thicken
350
8E2A
  0
DICTIONARY
  5
7EC4
102
{ACAD_REACTORS
330
C
102
}
330
C
100
AcDbDictionary
281
     1
  3
CTABLESTYLE
350
8664
  3
DIMASSOC
350
8B60
  3
INDEXCTL
350
8E34
  3
PROJECTNAME
350
8B61
  3
SORTENTS
350
7EC5
  0
XRECORD
  5
8E35
102
{ACAD_REACTORS
330
C
102
}
330
C
100
AcDbXrecord
280
     1
  1
DWGPROPS COOKIE
  2

  3

  4

  6

  7

  8
Administrador
  9

300
=
301
=
302
=
303
=
304
=
305
=
306
=
307
=
308
=
309
=
 40
0.784162037037037
 41
2450638.536017824
 42
2454447.807625915
  1

 90
        0
  0
DICTIONARY
  5
8E0C
102
{ACAD_REACTORS
330
8A6F
102
}
330
8A6F
100
AcDbDictionary
281
     1
  0
DICTIONARY
  5
8A70
102
{ACAD_REACTORS
330
8A6F
102
}
330
8A6F
100
AcDbDictionary
281
     1
  0
DICTIONARY
  5
8E0B
102
{ACAD_REACTORS
330
8A6F
102
}
330
8A6F
100
AcDbDictionary
281
     1
1001
ACAD
1000
<All
  0
SORTENTSTABLE
  5
8655
102
{ACAD_REACTORS
330
8654
102
}
330
8654
100
AcDbSortentsTable
330
18
331
811E
  5
820B
331
8429
  5
86C0
331
876C
  5
87AB
331
86ED
  5
87E5
331
8812
  5
8844
331
87E3
  5
8352
331
86F5
  5
87EE
331
8439
  5
86D2
331
8696
  5
869F
331
881A
  5
89D8
331
8AAF
  5
8AB6
331
86FD
  5
87F7
331
877C
  5
869D
331
8822
  5
89E0
331
8AB7
  5
8DB3
331
8A38
  5
81C9
331
86BE
  5
87B7
331
87AC
  5
877C
331
819E
  5
8348
331
820D
  5
8458
331
8402
  5
86BB
331
8441
  5
86EF
331
87F3
  5
8436
331
87B4
  5
8479
331
8451
  5
8700
331
8657
  5
81D1
331
86C6
  5
87C2
331
8705
  5
8806
331
87FB
  5
876D
331
871D
  5
8776
331
81C6
  5
842C
331
8363
  5
847D
331
86CE
  5
87D8
331
87BC
  5
87B0
331
8992
  5
612B
331
81CE
  5
8435
331
836B
  5
865A
331
8803
  5
8815
331
873D
  5
81C6
331
86E6
  5
87E1
331
880B
  5
881F
331
8AA0
  5
8AA5
331
81D6
  5
844E
331
842A
  5
86C1
331
8813
  5
8845
331
876D
  5
86A0
331
8432
  5
86C9
331
867F
  5
8778
331
86EE
  5
87E7
331
8AB0
  5
8AB7
331
87E4
  5
8375
331
843A
  5
86E2
331
8295
  5
8472
331
86F6
  5
87F0
331
8775
  5
871F
331
881B
  5
89D9
331
8A31
  5
81C2
331
86FE
  5
87FD
331
8823
  5
89E1
331
8AB8
  5
8DB4
331
86BF
  5
87B8
331
87AD
  5
877B
331
819F
  5
8349
331
820E
  5
846B
331
8442
  5
86F8
331
87F4
  5
8377
331
87B5
  5
87AA
331
8452
  5
871D
331
8658
  5
81A2
331
86C7
  5
87C3
331
87FC
  5
8347
331
871E
  5
81D2
331
86CF
  5
87D9
331
87BD
  5
8678
331
8364
  5
847E
331
8670
  5
8777
331
8804
  5
8816
331
8A99
  5
8A9E
331
86E7
  5
87E2
331
880C
  5
8820
331
8AA1
  5
8AA6
331
81D7
  5
8450
331
842B
  5
86C2
331
876E
  5
8698
331
8433
  5
86CA
331
86EF
  5
87E3
331
8814
  5
8885
331
8AB1
  5
8AB8
331
86F7
  5
87F2
331
8207
  5
8454
331
8698
  5
8478
331
8776
  5
8660
331
881C
  5
89DA
331
83F4
  5
86A2
331
86FF
  5
87F8
331
8824
  5
89E2
331
8AB9
  5
8DB5
331
887C
  5
612E
331
87AE
  5
877A
331
8A3A
  5
8A9C
331
7FE9
  5
7FF1
331
820F
  5
846C
331
8443
  5
86F9
331
86C0
  5
87B9
331
87F5
  5
876C
331
81C0
  5
834D
331
8453
  5
871E
331
86C8
  5
86CB
331
87B6
  5
87B2
331
8049
  5
8207
331
81C8
  5
842F
331
8365
  5
847F
331
846B
  5
8733
331
8661
  5
802D
331
86D0
  5
87DA
331
871F
  5
8193
331
87BE
  5
867D
331
87FD
  5
880F
331
836D
  5
865F
331
8805
  5
8817
331
8A9A
  5
8A9F
331
87D6
  5
8222
331
880D
  5
8821
331
8AA2
  5
8AA7
331
81D8
  5
8451
331
8287
  5
8471
331
8375
  5
8676
331
842C
  5
86C3
331
8A23
  5
819E
331
8200
  5
8453
331
8316
  5
8475
331
8139
  5
820D
331
86F0
  5
87E9
331
876F
  5
8675
331
8815
  5
8913
331
8AB2
  5
8AB9
331
86F8
  5
87F1
331
8777
  5
8673
331
881D
  5
89DB
331
8A33
  5
8A9B
331
87AF
  5
8779
331
8A3B
  5
8A9D
331
8199
  5
8316
331
7FEA
  5
802E
331
8210
  5
846D
331
8444
  5
86FC
331
85DB
  5
8770
331
86C1
  5
87BA
331
8700
  5
8801
331
8885
  5
612F
331
87F6
  5
8342
331
87B7
  5
87AD
331
86C9
  5
87D3
331
896D
  5
612A
331
8720
  5
8203
331
804A
  5
8209
331
81C9
  5
8430
331
8366
  5
8480
331
86D1
  5
87DB
331
87BF
  5
880E
331
87FE
  5
8810
331
82EF
  5
8474
331
836E
  5
8671
331
8425
  5
86BC
331
8806
  5
8818
331
8A9B
  5
8AA0
331
87D7
  5
8287
331
880E
  5
8822
331
8AA3
  5
8AAD
331
81D9
  5
8452
331
8376
  5
8679
331
842D
  5
86C4
331
8816
  5
896E
331
8435
  5
86C8
331
813A
  5
8210
331
86F1
  5
87EA
331
87DF
  5
8353
331
87E7
  5
8343
331
8192
  5
821F
331
86F9
  5
87F4
331
8778
  5
869C
331
881E
  5
89DC
331
87EF
  5
8341
331
87A8
  5
880A
331
8209
  5
8455
331
81A2
  5
834C
331
7FEB
  5
8198
331
8211
  5
846E
331
8445
  5
86FD
331
86C2
  5
87BB
331
8701
  5
8804
331
87B0
  5
880D
331
87F7
  5
8346
331
87B8
  5
8677
331
81C2
  5
8376
331
8455
  5
8730
331
865B
  5
7FF4
331
86CA
  5
87D4
331
81CA
  5
8431
331
8367
  5
8481
331
86D2
  5
87DC
331
87FF
  5
8811
331
836F
  5
8672
331
8426
  5
86BD
331
86E2
  5
87DD
331
8807
  5
8819
331
8A9C
  5
8AA1
331
880F
  5
8823
331
8AA4
  5
8AAE
331
8377
  5
867A
331
842E
  5
86C5
331
87D8
  5
8295
331
87E0
  5
8355
331
8436
  5
86CC
331
813B
  5
8212
331
86F2
  5
87ED
331
8817
  5
89D5
331
843E
  5
86EC
331
8193
  5
8221
331
86FA
  5
87F5
331
8779
  5
8721
331
881F
  5
89DD
331
86BB
  5
87B3
331
87F0
  5
8345
331
8212
  5
846F
331
8446
  5
86FE
331
86C3
  5
87BC
331
8702
  5
8807
331
87B1
  5
880B
331
87F8
  5
8354
331
871A
  5
8192
331
8024
  5
81CB
331
81C3
  5
8378
331
8222
  5
8470
331
82E1
  5
8473
331
8456
  5
8731
331
865C
  5
8179
331
86CB
  5
87D6
331
87B9
  5
880C
331
81CB
  5
8432
331
8368
  5
8657
331
846E
  5
873D
331
8800
  5
8812
331
8427
  5
86BF
331
86E3
  5
87DE
331
873A
  5
8809
331
8808
  5
881A
331
8A9D
  5
8AA2
331
8AA5
  5
8AAF
331
8378
  5
867E
331
842F
  5
86C6
331
87D9
  5
82E1
331
8810
  5
8824
331
87E1
  5
8351
331
8437
  5
86CD
331
813C
  5
821E
331
86F3
  5
87E8
331
8818
  5
89D6
331
8AAD
  5
8AB2
331
8AB5
  5
8DB1
331
86FB
  5
87F3
331
843F
  5
86ED
331
869C
  5
87AE
331
877A
  5
8720
331
8820
  5
89DE
331
8A2E
  5
81CC
331
86BC
  5
87B5
331
87AA
  5
87A8
331
820B
  5
8456
331
87F1
  5
873F
331
87B2
  5
87AC
331
7FED
  5
81CA
331
8341
  5
8476
331
86C4
  5
87BE
331
8703
  5
8808
331
87F9
  5
873A
331
871B
  5
802C
331
81C4
  5
8379
331
8361
  5
847B
331
865D
  5
8772
331
86CC
  5
87D5
331
87BA
  5
87AF
331
81CC
  5
8433
331
8369
  5
8658
331
846F
  5
873E
331
87C2
  5
847A
331
8801
  5
8813
331
86E4
  5
87E0
331
8809
  5
881B
331
8A9E
  5
8AA3
331
8AA6
  5
8AB0
331
87DA
  5
82EF
331
8430
  5
86C7
331
8125
  5
820C
331
8379
  5
8697
331
86EC
  5
87E4
331
8811
  5
8843
331
87E2
  5
8356
331
8438
  5
86CF
331
86F4
  5
87EF
331
8819
  5
89D7
331
8AAE
  5
8AB5
331
8AB6
  5
8DB2
331
86FC
  5
87F6
331
869D
  5
87B1
331
877B
  5
8674
331
8821
  5
89DF
331
8A2F
  5
81C4
331
86BD
  5
87B6
331
87AB
  5
87A7
331
820C
  5
8457
331
8440
  5
86EE
331
87B3
  5
867B
331
8342
  5
8477
331
8450
  5
86FF
331
86C5
  5
87BF
331
87F2
  5
8738
331
87FA
  5
8438
331
871C
  5
8774
331
8026
  5
8204
331
81C5
  5
842B
331
8362
  5
847C
331
865E
  5
8775
331
86CD
  5
87D7
331
87BB
  5
87B4
331
836A
  5
8659
331
87C3
  5
867C
331
8802
  5
8814
331
86E5
  5
87DF
331
880A
  5
881D
331
8A9F
  5
8AA4
331
8AA7
  5
8AB1
  0
XRECORD
  5
8E3D
102
{ACAD_REACTORS
330
8E3C
102
}
330
8E3C
100
AcDbXrecord
280
     1
 40
36828.0
  1
DISTRIBUCIÓN DE DOCUMENTOS
  0
LAYOUT
  5
8636
102
{ACAD_XDICTIONARY
360
8E38
102
}
102
{ACAD_REACTORS
330
8634
102
}
330
8634
100
AcDbPlotSettings
  1

  2
PLOTER-2-A4.pc3
  4
A4
  6

 40
3.0
 41
12.0
 42
3.057998657226562
 43
6.010650634765625
 44
210.0579986572266
 45
297.0106506347656
 46
24.0
 47
0.0
 48
1915.352870550678
 49
505.4674703805976
140
3765.352870550677
141
3375.467470380598
142
1.0
143
10.28673835125448
 70
 11952
 72
     1
 73
     2
 74
     4
  7
ploter.ctb
 75
     0
147
0.097212543554007
148
-1915.352870550678
149
-505.4674703805976
100
AcDbLayout
  1
Model
 70
     1
 71
     0
 10
0.0
 20
0.0
 11
12.0
 21
9.0
 12
0.0
 22
0.0
 32
0.0
 14
0.0
 24
0.0
 34
0.0
 15
0.0
 25
0.0
 35
0.0
146
0.0
 13
0.0
 23
0.0
 33
0.0
 16
1.0
 26
0.0
 36
0.0
 17
0.0
 27
1.0
 37
0.0
 76
     0
330
18
331
8E13
1001
ACAD_PSEXT
1000
PLOTER-2-A4.pc3
1000
HP Business Inkjet 2600 PCL 5C
1000
CERAMICAS_GALA
1000

1070
     0
  0
LAYOUT
  5
8637
102
{ACAD_XDICTIONARY
360
8E3A
102
}
102
{ACAD_REACTORS
330
8634
102
}
330
8634
100
AcDbPlotSettings
  1

  2
C:\Documents and Settings\G0823\Application Data\Autodesk\AutoCAD 2005\R16.1\esp\plotters\Ploter-A2+.pc3
  4

  6

 40
0.0
 41
0.0
 42
0.0
 43
0.0
 44
0.0
 45
0.0
 46
0.0
 47
0.0
 48
0.0
 49
0.0
140
0.0
141
0.0
142
1.0
143
1.0
 70
   688
 72
     0
 73
     0
 74
     5
  7
ploter.ctb
 75
    16
147
1.0
148
0.0
149
0.0
100
AcDbLayout
  1
Presentación1
 70
     0
 71
     1
 10
0.0
 20
0.0
 11
12.0
 21
9.0
 12
0.0
 22
0.0
 32
0.0
 14
1.000000000000000E+20
 24
1.000000000000000E+20
 34
1.000000000000000E+20
 15
-1.000000000000000E+20
 25
-1.000000000000000E+20
 35
-1.000000000000000E+20
146
0.0
 13
0.0
 23
0.0
 33
0.0
 16
1.0
 26
0.0
 36
0.0
 17
0.0
 27
1.0
 37
0.0
 76
     0
330
15
  0
MATERIAL
  5
8E1B
102
{ACAD_XDICTIONARY
360
8E40
102
}
102
{ACAD_REACTORS
330
8630
102
}
330
8630
100
AcDbMaterial
  1
ByBlock
  0
MATERIAL
  5
8E1A
102
{ACAD_XDICTIONARY
360
8E3E
102
}
102
{ACAD_REACTORS
330
8630
102
}
330
8630
100
AcDbMaterial
  1
ByLayer
  0
MATERIAL
  5
8E1C
102
{ACAD_XDICTIONARY
360
8E42
102
}
102
{ACAD_REACTORS
330
8630
102
}
330
8630
100
AcDbMaterial
  1
Global
  0
MLINESTYLE
  5
1B
102
{ACAD_REACTORS
330
E
102
}
330
E
100
AcDbMlineStyle
  2
STANDARD
 70
     0
  3

 62
     0
 51
90.0
 52
90.0
 71
     2
 49
0.5
 62
   256
  6
BYLAYER
 49
-0.5
 62
   256
  6
BYLAYER
  0
ACDBPLACEHOLDER
  5
862F
102
{ACAD_REACTORS
330
862E
102
}
330
862E
  0
TABLESTYLE
  5
8633
102
{ACAD_XDICTIONARY
360
8E36
102
}
102
{ACAD_REACTORS
330
8632
102
}
330
8632
100
AcDbTableStyle
  3
Standard
 70
     0
 71
     0
 40
0.06
 41
0.06
280
     0
281
     0
  7
STANDARD
140
0.18
170
     2
 62
     0
 63
     7
283
     0
274
    -2
284
     1
 64
     0
275
    -2
285
     1
 65
     0
276
    -2
286
     1
 66
     0
277
    -2
287
     1
 67
     0
278
    -2
288
     1
 68
     0
279
    -2
289
     1
 69
     0
  7
STANDARD
140
0.25
170
     5
 62
     0
 63
     7
283
     0
274
    -2
284
     1
 64
     0
275
    -2
285
     1
 65
     0
276
    -2
286
     1
 66
     0
277
    -2
287
     1
 67
     0
278
    -2
288
     1
 68
     0
279
    -2
289
     1
 69
     0
  7
STANDARD
140
0.18
170
     5
 62
     0
 63
     7
283
     0
274
    -2
284
     1
 64
     0
275
    -2
285
     1
 65
     0
276
    -2
286
     1
 66
     0
277
    -2
287
     1
 67
     0
278
    -2
288
     1
 68
     0
279
    -2
289
     1
 69
     0
  0
VISUALSTYLE
  5
8E23
102
{ACAD_REACTORS
330
8E1D
102
}
330
8E1D
100
AcDbVisualStyle
  2
2dWireframe
 70
     4
 71
     0
 72
     2
 73
     0
 90
        0
 40
-0.6
 41
-30.0
 62
     5
 63
     7
 74
     1
 91
        4
 64
     7
 65
   257
 75
     1
175
     1
 42
1.0
 92
        0
 66
   257
 43
1.0
 76
     1
 77
     6
 78
     2
 67
     7
 79
     5
170
     0
171
     0
290
     0
174
     0
 93
        1
 44
0.0
173
     0
291
     0
 45
0.0
1001
ACAD
1000
AcDbSavedByObjectVersion
1070
     0
  0
VISUALSTYLE
  5
8E25
102
{ACAD_REACTORS
330
8E1D
102
}
330
8E1D
100
AcDbVisualStyle
  2
3D Hidden
 70
     6
 71
     1
 72
     2
 73
     2
 90
        0
 40
-0.6
 41
-30.0
 62
     5
 63
     7
 74
     2
 91
        2
 64
     7
 65
   257
 75
     2
175
     1
 42
40.0
 92
        0
 66
   257
 43
1.0
 76
     1
 77
     6
 78
     2
 67
     7
 79
     3
170
     0
171
     0
290
     0
174
     0
 93
        1
 44
0.0
173
     0
291
     0
 45
0.0
1001
ACAD
1000
AcDbSavedByObjectVersion
1070
     0
  0
VISUALSTYLE
  5
8E24
102
{ACAD_REACTORS
330
8E1D
102
}
330
8E1D
100
AcDbVisualStyle
  2
3dWireframe
 70
     5
 71
     0
 72
     2
 73
     0
 90
        0
 40
-0.6
 41
-30.0
 62
     5
 63
     7
 74
     1
 91
        4
 64
     7
 65
   257
 75
     1
175
     1
 42
1.0
 92
        0
 66
   257
 43
1.0
 76
     1
 77
     6
 78
     2
 67
     7
 79
     5
170
     0
171
     0
290
     0
174
     0
 93
        1
 44
0.0
173
     0
291
     0
 45
0.0
1001
ACAD
1000
AcDbSavedByObjectVersion
1070
     0
  0
VISUALSTYLE
  5
8E22
102
{ACAD_REACTORS
330
8E1D
102
}
330
8E1D
100
AcDbVisualStyle
  2
Basic
 70
     7
 71
     1
 72
     0
 73
     1
 90
        0
 40
-0.6
 41
-30.0
 62
     5
 63
     7
 74
     0
 91
        4
 64
     7
 65
   257
 75
     1
175
     1
 42
1.0
 92
        8
 66
     7
 43
1.0
 76
     1
 77
     6
 78
     2
 67
     7
 79
     5
170
     0
171
     0
290
     0
174
     0
 93
        1
 44
0.0
173
     0
291
     1
 45
0.0
1001
ACAD
1000
AcDbSavedByObjectVersion
1070
     0
  0
VISUALSTYLE
  5
8E29
102
{ACAD_REACTORS
330
8E1D
102
}
330
8E1D
100
AcDbVisualStyle
  2
Brighten
 70
    12
 71
     2
 72
     2
 73
     0
 90
        0
 40
-0.6
 41
-30.0
 62
     5
 63
     7
 74
     1
 91
        4
 64
     7
 65
   257
 75
     1
175
     1
 42
1.0
 92
        8
 66
     7
 43
1.0
 76
     1
 77
     6
 78
     2
 67
     7
 79
     5
170
     0
171
     0
290
     0
174
     0
 93
        1
 44
50.0
173
     0
291
     1
 45
0.0
1001
ACAD
1000
AcDbSavedByObjectVersion
1070
     0
  0
VISUALSTYLE
  5
8E2D
102
{ACAD_REACTORS
330
8E1D
102
}
330
8E1D
100
AcDbVisualStyle
  2
ColorChange
 70
    16
 71
     2
 72
     2
 73
     3
 90
        0
 40
-0.6
 41
-30.0
 62
     5
 63
     8
 74
     1
 91
        4
 64
     7
 65
   257
 75
     1
175
     1
 42
1.0
 92
        8
 66
     8
 43
1.0
 76
     1
 77
     6
 78
     2
 67
     7
 79
     5
170
     0
171
     0
290
     0
174
     0
 93
        1
 44
0.0
173
     0
291
     1
 45
0.0
1001
ACAD
1000
AcDbSavedByObjectVersion
1070
     0
  0
VISUALSTYLE
  5
8E26
102
{ACAD_REACTORS
330
8E1D
102
}
330
8E1D
100
AcDbVisualStyle
  2
Conceptual
 70
     9
 71
     3
 72
     2
 73
     0
 90
        0
 40
-0.6
 41
-30.0
 62
     5
 63
     7
 74
     2
 91
        2
 64
     7
 65
   257
 75
     1
175
     1
 42
40.0
 92
        8
 66
     7
 43
1.0
 76
     1
 77
     6
 78
     2
 67
     7
 79
     3
170
     0
171
     0
290
     0
174
     0
 93
        1
 44
0.0
173
     0
291
     0
 45
0.0
1001
ACAD
1000
AcDbSavedByObjectVersion
1070
     0
  0
VISUALSTYLE
  5
8E28
102
{ACAD_REACTORS
330
8E1D
102
}
330
8E1D
100
AcDbVisualStyle
  2
Dim
 70
    11
 71
     2
 72
     2
 73
     0
 90
        0
 40
-0.6
 41
-30.0
 62
     5
 63
     7
 74
     1
 91
        4
 64
     7
 65
   257
 75
     1
175
     1
 42
1.0
 92
        8
 66
     7
 43
1.0
 76
     1
 77
     6
 78
     2
 67
     7
 79
     5
170
     0
171
     0
290
     0
174
     0
 93
        1
 44
-50.0
173
     0
291
     1
 45
0.0
1001
ACAD
1000
AcDbSavedByObjectVersion
1070
     0
  0
VISUALSTYLE
  5
8E2C
102
{ACAD_REACTORS
330
8E1D
102
}
330
8E1D
100
AcDbVisualStyle
  2
Facepattern
 70
    15
 71
     2
 72
     2
 73
     0
 90
        0
 40
-0.6
 41
-30.0
 62
     5
 63
     7
 74
     1
 91
        4
 64
     7
 65
   257
 75
     1
175
     1
 42
1.0
 92
        8
 66
     7
 43
1.0
 76
     1
 77
     6
 78
     2
 67
     7
 79
     5
170
     0
171
     0
290
     0
174
     0
 93
        1
 44
0.0
173
     0
291
     1
 45
0.0
1001
ACAD
1000
AcDbSavedByObjectVersion
1070
     0
  0
VISUALSTYLE
  5
8E1E
102
{ACAD_REACTORS
330
8E1D
102
}
330
8E1D
100
AcDbVisualStyle
  2
Flat
 70
     0
 71
     2
 72
     1
 73
     1
 90
        2
 40
-0.6
 41
30.0
 62
     5
 63
     7
 74
     0
 91
        4
 64
     7
 65
   257
 75
     1
175
     1
 42
1.0
 92
        8
 66
     7
 43
1.0
 76
     1
 77
     6
 78
     2
 67
     7
 79
     5
170
     0
171
     0
290
     0
174
     0
 93
       13
 44
0.0
173
     0
291
     1
 45
0.0
1001
ACAD
1000
AcDbSavedByObjectVersion
1070
     0
  0
VISUALSTYLE
  5
8E1F
102
{ACAD_REACTORS
330
8E1D
102
}
330
8E1D
100
AcDbVisualStyle
  2
FlatWithEdges
 70
     1
 71
     2
 72
     1
 73
     1
 90
        2
 40
-0.6
 41
30.0
 62
     5
 63
     7
 74
     1
 91
        4
 64
     7
 65
   257
 75
     1
175
     1
 42
1.0
 92
        0
 66
   257
 43
1.0
 76
     1
 77
     6
 78
     2
 67
     7
 79
     5
170
     0
171
     0
290
     0
174
     0
 93
       13
 44
0.0
173
     0
291
     1
 45
0.0
1001
ACAD
1000
AcDbSavedByObjectVersion
1070
     0
  0
VISUALSTYLE
  5
8E20
102
{ACAD_REACTORS
330
8E1D
102
}
330
8E1D
100
AcDbVisualStyle
  2
Gouraud
 70
     2
 71
     2
 72
     2
 73
     1
 90
        2
 40
-0.6
 41
30.0
 62
     5
 63
     7
 74
     0
 91
        4
 64
     7
 65
   257
 75
     1
175
     1
 42
1.0
 92
        0
 66
     7
 43
1.0
 76
     1
 77
     6
 78
     2
 67
     7
 79
     5
170
     0
171
     0
290
     0
174
     0
 93
       13
 44
0.0
173
     0
291
     1
 45
0.0
1001
ACAD
1000
AcDbSavedByObjectVersion
1070
     0
  0
VISUALSTYLE
  5
8E21
102
{ACAD_REACTORS
330
8E1D
102
}
330
8E1D
100
AcDbVisualStyle
  2
GouraudWithEdges
 70
     3
 71
     2
 72
     2
 73
     1
 90
        2
 40
-0.6
 41
30.0
 62
     5
 63
     7
 74
     1
 91
        4
 64
     7
 65
   257
 75
     1
175
     1
 42
1.0
 92
        0
 66
   257
 43
1.0
 76
     1
 77
     6
 78
     2
 67
     7
 79
     5
170
     0
171
     0
290
     0
174
     0
 93
       13
 44
0.0
173
     0
291
     1
 45
0.0
1001
ACAD
1000
AcDbSavedByObjectVersion
1070
     0
  0
VISUALSTYLE
  5
8E2B
102
{ACAD_REACTORS
330
8E1D
102
}
330
8E1D
100
AcDbVisualStyle
  2
Linepattern
 70
    14
 71
     2
 72
     2
 73
     0
 90
        0
 40
-0.6
 41
-30.0
 62
     5
 63
     7
 74
     1
 91
        4
 64
     7
 65
   257
 75
     7
175
     7
 42
1.0
 92
        8
 66
     7
 43
1.0
 76
     1
 77
     6
 78
     2
 67
     7
 79
     5
170
     0
171
     0
290
     0
174
     0
 93
        1
 44
0.0
173
     0
291
     1
 45
0.0
1001
ACAD
1000
AcDbSavedByObjectVersion
1070
     0
  0
VISUALSTYLE
  5
8E27
102
{ACAD_REACTORS
330
8E1D
102
}
330
8E1D
100
AcDbVisualStyle
  2
Realistic
 70
     8
 71
     2
 72
     2
 73
     0
 90
        0
 40
-0.6
 41
-30.0
 62
     5
 63
     7
 74
     1
 91
        0
 64
     7
 65
   257
 75
     1
175
     1
 42
1.0
 92
        8
 66
     8
 43
1.0
 76
     1
 77
     6
 78
     2
 67
     7
 79
     5
170
     0
171
     0
290
     0
174
     0
 93
       13
 44
0.0
173
     0
291
     0
 45
0.0
1001
ACAD
1000
AcDbSavedByObjectVersion
1070
     0
  0
VISUALSTYLE
  5
8E2A
102
{ACAD_REACTORS
330
8E1D
102
}
330
8E1D
100
AcDbVisualStyle
  2
Thicken
 70
    13
 71
     2
 72
     2
 73
     0
 90
        0
 40
-0.6
 41
-30.0
 62
     5
 63
     7
 74
     1
 91
        4
 64
     7
 65
   257
 75
     1
175
     1
 42
1.0
 92
       12
 66
     7
 43
1.0
 76
     1
 77
     6
 78
     2
 67
     7
 79
     5
170
     0
171
     0
290
     0
174
     0
 93
        1
 44
0.0
173
     0
291
     1
 45
0.0
1001
ACAD
1000
AcDbSavedByObjectVersion
1070
     0
  0
DICTIONARYVAR
  5
8664
102
{ACAD_REACTORS
330
7EC4
102
}
330
7EC4
100
DictionaryVariables
280
     0
  1
STANDARD
  0
DICTIONARYVAR
  5
8B60
102
{ACAD_REACTORS
330
7EC4
102
}
330
7EC4
100
DictionaryVariables
280
     0
  1
1
  0
DICTIONARYVAR
  5
8E34
102
{ACAD_REACTORS
330
7EC4
102
}
330
7EC4
100
DictionaryVariables
280
     0
  1
0
  0
DICTIONARYVAR
  5
8B61
102
{ACAD_REACTORS
330
7EC4
102
}
330
7EC4
100
DictionaryVariables
280
     0
  1

  0
DICTIONARYVAR
  5
7EC5
102
{ACAD_REACTORS
330
7EC4
102
}
330
7EC4
100
DictionaryVariables
280
     0
  1
127
  0
DICTIONARY
  5
8E38
330
8636
100
AcDbDictionary
280
     1
281
     1
  3
ACAD_XREC_ROUNDTRIP
360
8E39
  0
DICTIONARY
  5
8E3A
330
8637
100
AcDbDictionary
280
     1
281
     1
  3
ACAD_XREC_ROUNDTRIP
360
8E3B
  0
DICTIONARY
  5
8E40
330
8E1B
100
AcDbDictionary
280
     1
281
     1
  3
ACAD_XREC_ROUNDTRIP
360
8E41
  0
DICTIONARY
  5
8E3E
330
8E1A
100
AcDbDictionary
280
     1
281
     1
  3
ACAD_XREC_ROUNDTRIP
360
8E3F
  0
DICTIONARY
  5
8E42
330
8E1C
100
AcDbDictionary
280
     1
281
     1
  3
ACAD_XREC_ROUNDTRIP
360
8E43
  0
DICTIONARY
  5
8E36
330
8633
100
AcDbDictionary
280
     1
281
     1
  3
ACAD_XREC_ROUNDTRIP
360
8E37
  0
XRECORD
  5
8E39
102
{ACAD_REACTORS
330
8E38
102
}
330
8E38
100
AcDbXrecord
280
     1
102
SHADEPLOT
 70
     0
102
SHADEPLOTRESLEVEL
 70
     2
102
SHADEPLOTCUSTOMDPI
 70
   300
  0
XRECORD
  5
8E3B
102
{ACAD_REACTORS
330
8E3A
102
}
330
8E3A
100
AcDbXrecord
280
     1
102
SHADEPLOT
 70
     0
102
SHADEPLOTRESLEVEL
 70
     2
102
SHADEPLOTCUSTOMDPI
 70
   300
  0
XRECORD
  5
8E41
102
{ACAD_REACTORS
330
8E40
102
}
330
8E40
100
AcDbXrecord
280
     1
102
MATERIAL
148
0.0
149
0.0
149
0.0
 93
        0
 94
       63
282
     0
 72
     1
 77
     1
171
     1
175
     1
179
     1
273
     0
  0
XRECORD
  5
8E3F
102
{ACAD_REACTORS
330
8E3E
102
}
330
8E3E
100
AcDbXrecord
280
     1
102
MATERIAL
148
0.0
149
0.0
149
0.0
 93
        0
 94
       63
282
     0
 72
     1
 77
     1
171
     1
175
     1
179
     1
273
     0
  0
XRECORD
  5
8E43
102
{ACAD_REACTORS
330
8E42
102
}
330
8E42
100
AcDbXrecord
280
     1
102
MATERIAL
148
0.0
149
0.0
149
0.0
 93
        0
 94
       63
282
     0
 72
     1
 77
     1
171
     1
175
     1
179
     1
273
     0
  0
XRECORD
  5
8E37
102
{ACAD_REACTORS
330
8E36
102
}
330
8E36
100
AcDbXrecord
280
     1
102
ACAD_ROUNDTRIP_PRE2007_TABLESTYLE
 90
        4
 91
        0
  1

 92
        4
 93
        0
  2

 94
        4
 95
        0
  3

  0
ENDSEC
  0
EOF
